\m/ 80's metal \m/

Информационно-аналитический форум "80 см пыли" (In Search We Trust) "У нас никто никуда не спешит"
Me For You - http://me-4u.com
It is currently 23 Apr 2019

All times are UTC + 3 hours

Spoiler
Chat - temporary registration for foreign users (please leave your application here)







Post new topic Reply to topic  [ 3 posts ] 
Author Message
 
PostPosted: 22 Mar 2012 
Хиппей (support team)
User avatar
Joined: 30 Jul 2007
Posts: 111805
Lоcаtion: Киев (Kyiv, UA)
Age: 45
Name: Andrey
Laaz Rockit - 1991 - Nothing's Sacred (remastered 2009) [flac]

Image

Genre: Power Metal/Thrash Metal
Location: USA
Format: flac + cue + log (no scans)
Size: 435 Mb


Line-up:

Michael Coons - vocals
Aaron Jellum - guitars
Scott Sargent - guitars
Scott Dominguez - bass
Dave Chavarri - drums

    1. In the Name of the Father and the Gun - 04:14
    2. Into the Asylum - 04:56
    3. Greed Machine - 04:28
    4. Too Far Gone - 03:45
    5. Curiosity Kills - 03:18
    6. Suicide City - 04:26
    7. The Enemy Within - 05:53
    8. Nobody's Child - 03:43
    9. Silence is a Lie - 03:45
    10. Necropolis - 03:52
    11. Ten Eyes - 03:57
    12. Testimonial - 04:25
    13. Plague - 05:02

    TPT: 55:47

Пятый студийный альбом группы. Последний, перед первым распадом, представляет из себя мощный Power Metal/Thrash с современным (на тот период) саундом - мощнейшая римт-секция, отточенная до автоматизма ярость и злоба. Ровно настолько, насколько позволяют рамки стиля. Вокал так же мощный, струёвый, втемный. То есть, вроде и придраться не к чему, а попахивает серостью и вторичностью. То есть, второсортный по музыкальному материалу релиз. Никаких запоминающихся мелодий, фишек или вокальных приколов здесь нет. Всё ровно и вылизано до мельчайших пылинок. Хоть бери и прикладывай к ранам. Исключение 9-й трэк, где присутствует и мелодия, и структура песни нетривиальна, и вокальные партии выверены, хоть и по-прежнему напоминают ранние работы Testament, только в облегчённом виде. Вроде бы, нонсенс - группа НЕ играет трэш, но звучит как Тэстамент. А это всё из-за очень плотного звука. Зачастую перенасыщенного.
Почему группа до сих пор не входит хотя бы в десятку лучших команд американского трэша?
1. Это не трэш в классическом понимании, а гипертрофированный Power.
2. Они скучны и предсказуемы.

Как фон альбом хорош, как саундтрэк к тупому хэдбендингу с веником в руке перед зеркалом - лучше не придумешь, а вот как полноценный релиз, который хотелось бы слушать постоянно и наслаждаться - полный ноль, пустышка.

Натянутая оценка: 5/10

Thanx to Saeba from MMT :thanx:

Speedy l Narod

log
EAC extraction logfile from 7. February 2010, 12:59 for CD
Laaz Rockit / Nothing$ $acred

Used drive : HL-DT-STDVD-RAM GSA-H20N Adapter: 0 ID: 0
Read mode : Secure with NO C2, accurate stream, disable cache
Read offset correction : 102
Overread into Lead-In and Lead-Out : No

Used output format : C:\Archivos de programa\Exact Audio Copy\FLAC.EXE (User Defined Encoder)
32 kBit/s
Additional command line options : -6 -V %s

Other options :
Fill up missing offset samples with silence : Yes
Delete leading and trailing silent blocks : No
Native Win32 interface for Win NT & 2000


Range status and errors
Selected range
Filename E:\Music\Rips\Laaz Rockit - Nothings Sacred (2009 Remaster)\CDImage.flac.wav

Peak level 100.0 %
Range quality 100.0 %
CRC 9E894E82
Copy OK

No errors occured

End of status report

cue
PERFORMER "Laaz Rockit"
TITLE "Nothing$ $acred"
FILE "CDImage.flac" WAVE
TRACK 01 AUDIO
TITLE "In the Name of the Father and the Gun"
PERFORMER "Laaz Rockit"
INDEX 01 00:00:00
TRACK 02 AUDIO
TITLE "Into the Asylum"
PERFORMER "Laaz Rockit"
INDEX 01 04:55:34
TRACK 03 AUDIO
TITLE "Greed Machine"
PERFORMER "Laaz Rockit"
INDEX 01 09:07:54
TRACK 04 AUDIO
TITLE "Too Far Gone"
PERFORMER "Laaz Rockit"
INDEX 01 13:37:48
TRACK 05 AUDIO
TITLE "Curiosity Kills"
PERFORMER "Laaz Rockit"
INDEX 01 17:23:31
TRACK 06 AUDIO
TITLE "Suicide City"
PERFORMER "Laaz Rockit"
INDEX 01 20:40:65
TRACK 07 AUDIO
TITLE "The Enemy Within"
PERFORMER "Laaz Rockit"
INDEX 01 25:07:57
TRACK 08 AUDIO
TITLE "Nobody's Child"
PERFORMER "Laaz Rockit"
INDEX 01 31:00:19
TRACK 09 AUDIO
TITLE "Silence Is a Lie"
PERFORMER "Laaz Rockit"
INDEX 01 34:43:11
TRACK 10 AUDIO
TITLE "Necropolis"
PERFORMER "Laaz Rockit"
INDEX 01 38:28:19
TRACK 11 AUDIO
TITLE "Ten Eyes"
PERFORMER "Laaz Rockit"
INDEX 01 42:21:63
TRACK 12 AUDIO
TITLE "Testimonial"
PERFORMER "Laaz Rockit"
INDEX 01 46:19:31
TRACK 13 AUDIO
TITLE "Plague"
PERFORMER "Laaz Rockit"
INDEX 01 50:45:12

spectrum
Image

_________________


Top
 Profile E-mail  
 
 
PostPosted: 08 Apr 2012 
***


Last edited by Вася_металлист_2012 on 14 Dec 2012, edited 1 time in total.

Top
  
 
 
PostPosted: 04 May 2012 
Персональный статус
Joined: 19 Jul 2010
Posts: 282
Lоcаtion: Москва
Name: Вадим
Третий и четвёртый альбомы группы, конечно, поинтересней, но и этот всегда нравился.
Насчёт того, что в 10-тку лучших америкосов-трешеров не входят достаточно спорно: это сейчас про них мало кто знает, а в своё время банда была на слуху.
Кстати, давненько этот альбом не переслушивал, надо будет как-нибудь память освежить. :-))


Top
 Profile E-mail  
 
Display posts from previous:  Sort by  
Post new topic Reply to topic  [ 3 posts ] 

All times are UTC + 3 hours


Who is online

Users browsing this forum: No registered users and 1 guest


You cannot post new topics in this forum
You cannot reply to topics in this forum
You cannot edit your posts in this forum
You cannot delete your posts in this forum
You cannot post attachments in this forum

Search for:
Яндекс.Метрика
Powered by phpBB © 2000, 2002, 2005, 2007 phpBB Group