\m/ 80's metal \m/

Информационно-аналитический форум "80 см пыли" (In Search We Trust) "У нас никто никуда не спешит"
Me For You - http://me-4u.com
It is currently 23 Apr 2019

All times are UTC + 3 hours

Spoiler
Chat - temporary registration for foreign users (please leave your application here)







Post new topic Reply to topic  [ 4 posts ] 
Author Message
 
PostPosted: 13 Mar 2012 
Прокъмитолист
User avatar
Joined: 12 Aug 2007
Posts: 6545
Lоcаtion: Санктъ-Петербуркъ
Age: 51
Name: Олекъ
Lack Of Faith [2003] Aeternus Caligatio
Rivel Records [RRCD010]

Image

Genre: power/progressive metal
Country: Sweden
Contents: flac/cue/log/covers
Size: 393 MB

Tracklist:
01. Suffocate
02. I
03. Nothing
04. Psychological Chaos
05. Immortal
06. Tell Me
07. Mesmerize Me
08. World Of Disorder
09. The Pain Remains
10. Perpetual Twilight
11. Enemy Within

Playtime: 52:41

Lineup:
Ronny Hemlin - vocals
Andreas Silén - guitars
Mikael Hallberg - bass
Ronnie Lunqvist - drums

EAC log
Code:
EAC extraction logfile from 24. April 2009, 21:27 for CD
Lack Of Faith / Aeternus Caligatio

Used drive  : _NEC    DVD_RW ND-3500AG   Adapter: 0  ID: 2
Read mode   : Secure with NO C2, accurate stream, disable cache
Read offset correction : 48
Overread into Lead-In and Lead-Out : No

Used output format : Internal WAV Routines
                     44.100 Hz; 16 Bit; Stereo

Other options      :
    Fill up missing offset samples with silence : Yes
    Delete leading and trailing silent blocks : No
    Installed external ASPI interface


Range status and errors
Selected range
     Filename E:\Music\Lack Of Faith - Aeternus Caligatio.wav

     Peak level 97.7 %
     Range quality 99.9 %
     CRC 3A9A2DCF
     Copy OK

No errors occured

End of status report

Cue
REM GENRE Metal
REM DATE 2003
REM DISCID 990C590B
REM COMMENT "ExactAudioCopy v0.95b4"
PERFORMER "Lack Of Faith"
TITLE "Aeternus Caligatio"
FILE "Lack Of Faith - Aeternus Caligatio.wav" WAVE
TRACK 01 AUDIO
TITLE "Suffocate"
PERFORMER "Lack Of Faith"
INDEX 01 00:00:00
TRACK 02 AUDIO
TITLE "I"
PERFORMER "Lack Of Faith"
INDEX 01 05:00:01
TRACK 03 AUDIO
TITLE "Nothing"
PERFORMER "Lack Of Faith"
INDEX 01 08:09:27
TRACK 04 AUDIO
TITLE "Psychological Chaos"
PERFORMER "Lack Of Faith"
INDEX 01 14:09:08
TRACK 05 AUDIO
TITLE "Immortal"
PERFORMER "Lack Of Faith"
INDEX 01 19:06:63
TRACK 06 AUDIO
TITLE "Tell Me"
PERFORMER "Lack Of Faith"
INDEX 01 24:25:33
TRACK 07 AUDIO
TITLE "Mesmerize Me"
PERFORMER "Lack Of Faith"
INDEX 01 29:39:06
TRACK 08 AUDIO
TITLE "World Of Disorder"
PERFORMER "Lack Of Faith"
INDEX 01 34:17:35
TRACK 09 AUDIO
TITLE "The Pain Remains"
PERFORMER "Lack Of Faith"
INDEX 01 38:56:47
TRACK 10 AUDIO
TITLE "Perpetual Twilight"
PERFORMER "Lack Of Faith"
INDEX 01 46:32:06
TRACK 11 AUDIO
TITLE "Enemy Within"
PERFORMER "Lack Of Faith"
INDEX 01 48:49:25

Spectrum
Image


Все же решил оформить в Бухту лосика отсюда :losik:

_________________
прокъметол - это музыко, от которово есть прок (ы)


Top
 Profile  
 
 
PostPosted: 13 Mar 2012 
Хиппей (support team)
User avatar
Joined: 30 Jul 2007
Posts: 111788
Lоcаtion: Киев (Kyiv, UA)
Age: 45
Name: Andrey
:thanx:

mirrir: Speedy l Narod

_________________


Top
 Profile E-mail  
 
 
PostPosted: 17 Mar 2012 
труъ антисионист
User avatar
Joined: 01 Aug 2007
Posts: 4541
Lоcаtion: Откуда и большинство из нас
Age: 38
Name: Дядя Вова
phpBB [youtube]

_________________
Image
Image


Top
 Profile  
 
 
PostPosted: 18 Mar 2012 
Power Metal Maniac
User avatar
Joined: 09 Aug 2008
Posts: 6673
Lоcаtion: Москва
Age: 41
Name: Егор
:thanx:

_________________
Long Live Metal!


Top
 Profile  
 
Display posts from previous:  Sort by  
Post new topic Reply to topic  [ 4 posts ] 

All times are UTC + 3 hours


Who is online

Users browsing this forum: No registered users and 1 guest


You cannot post new topics in this forum
You cannot reply to topics in this forum
You cannot edit your posts in this forum
You cannot delete your posts in this forum
You cannot post attachments in this forum

Search for:
Яндекс.Метрика
cron
Powered by phpBB © 2000, 2002, 2005, 2007 phpBB Group