\m/ 80's metal \m/

Информационно-аналитический форум "80 см пыли" (In Search We Trust) "У нас никто никуда не спешит"
Me For You - http://me-4u.com
It is currently 22 Apr 2019

All times are UTC + 3 hours

Spoiler
Chat - temporary registration for foreign users (please leave your application here)







Post new topic Reply to topic  [ 9 posts ] 
Author Message
 
PostPosted: 10 Mar 2012 
Работнечег
User avatar
Joined: 28 Aug 2007
Posts: 5805
Lоcаtion: г. Москва
Age: 30
Name: Дима
Image

Band: Lunatics Without Skateboards (L.W.S.)
Album: Reality
Label: Upcoming Artists Inc
Genre: Thrash Metal
Country: Netherlands
Format: Flac + Log + Cue + Covers
Size: 422 Mb

Line-Up:
Roon - Guitar
John Frijn - Vocals
Rene - Bass
Maus - Drums


Tracklist:
1. Tuning 00:41 Show lyrics
2. Hitchhiking Disease 05:10 Show lyrics
3. Fucked Up 04:42 Show lyrics
4. In Name of God 05:18 Show lyrics
5. Reality 05:18 Show lyrics
6. Just a Friend 06:05 Show lyrics
7. For Nature 06:49 Show lyrics
8. Aggression 03:12 Show lyrics
9. Call it Suicide 05:10 Show lyrics
10. Is Life Death 05:10 Show lyrics
11. Livin' With the System 07:46 Show lyrics
12. Crossroads 02:39

LOG
Exact Audio Copy V0.99 prebeta 5 from 4. May 2009

EAC extraction logfile from 9. March 2012, 16:12

Lunatics Without Skateboards / Reality

Used drive : PIONEER DVD-RW DVR-116D Adapter: 0 ID: 0

Read mode : Secure
Utilize accurate stream : Yes
Defeat audio cache : Yes
Make use of C2 pointers : No

Read offset correction : 96
Overread into Lead-In and Lead-Out : No
Fill up missing offset samples with silence : Yes
Delete leading and trailing silent blocks : No
Null samples used in CRC calculations : Yes
Used interface : Native Win32 interface for Win NT & 2000

Used output format : User Defined Encoder
Selected bitrate : 32 kBit/s
Quality : High
Add ID3 tag : No
Command line compressor : C:\Program Files\Exact Audio Copy\Flac\flac.exe
Additional command line options : -6 -V %s


TOC of the extracted CD

Track | Start | Length | Start sector | End sector
---------------------------------------------------------
1 | 0:00.00 | 0:41.23 | 0 | 3097
2 | 0:41.23 | 5:10.50 | 3098 | 26397
3 | 5:51.73 | 4:41.44 | 26398 | 47516
4 | 10:33.42 | 5:18.10 | 47517 | 71376
5 | 15:51.52 | 5:17.48 | 71377 | 95199
6 | 21:09.25 | 6:05.46 | 95200 | 122620
7 | 27:14.71 | 6:48.14 | 122621 | 153234
8 | 34:03.10 | 3:12.03 | 153235 | 167637
9 | 37:15.13 | 5:10.29 | 167638 | 190916
10 | 42:25.42 | 5:10.23 | 190917 | 214189
11 | 47:35.65 | 7:45.48 | 214190 | 249112
12 | 55:21.38 | 2:39.14 | 249113 | 261051


Range status and errors

Selected range

Filename D:\Музыка\Lossless\L.W.S. - Reality (1995)\Lunatics Without Skateboards - Reality.wav

Peak level 100.0 %
Range quality 99.9 %
Copy CRC 875CADF2
Copy OK

No errors occurred


AccurateRip summary

Track 1 accurately ripped (confidence 2) [29B5969C]
Track 2 accurately ripped (confidence 2) [D301338E]
Track 3 accurately ripped (confidence 2) [65F35739]
Track 4 accurately ripped (confidence 2) [99779741]
Track 5 accurately ripped (confidence 2) [5229817B]
Track 6 accurately ripped (confidence 2) [D09D3D72]
Track 7 accurately ripped (confidence 2) [7F5EE7CE]
Track 8 accurately ripped (confidence 2) [5B69B228]
Track 9 accurately ripped (confidence 2) [998BE3F4]
Track 10 accurately ripped (confidence 2) [AB009BF1]
Track 11 accurately ripped (confidence 2) [C50AA519]
Track 12 accurately ripped (confidence 2) [BFE102EF]

All tracks accurately ripped

End of status report

CUE
REM GENRE "Thrash Metal"
REM DATE 1995
REM DISCID 9A0D980C
REM COMMENT "ExactAudioCopy v0.99pb5"
PERFORMER "Lunatics Without Skateboards"
TITLE "Reality"
FILE "Lunatics Without Skateboards - Reality.flac" WAVE
TRACK 01 AUDIO
TITLE "Tuning"
PERFORMER "Lunatics Without Skateboards"
FLAGS DCP
INDEX 01 00:00:00
TRACK 02 AUDIO
TITLE "Hitchhiking Disease"
PERFORMER "Lunatics Without Skateboards"
FLAGS DCP
INDEX 01 00:41:23
TRACK 03 AUDIO
TITLE "Fucked Up"
PERFORMER "Lunatics Without Skateboards"
FLAGS DCP
INDEX 01 05:51:73
TRACK 04 AUDIO
TITLE "In The Name Of God"
PERFORMER "Lunatics Without Skateboards"
FLAGS DCP
INDEX 01 10:33:42
TRACK 05 AUDIO
TITLE "Reality"
PERFORMER "Lunatics Without Skateboards"
FLAGS DCP
INDEX 01 15:51:52
TRACK 06 AUDIO
TITLE "Just A Friend"
PERFORMER "Lunatics Without Skateboards"
FLAGS DCP
INDEX 01 21:09:25
TRACK 07 AUDIO
TITLE "For Nature"
PERFORMER "Lunatics Without Skateboards"
FLAGS DCP
INDEX 01 27:14:71
TRACK 08 AUDIO
TITLE "Aggression"
PERFORMER "Lunatics Without Skateboards"
FLAGS DCP
INDEX 01 34:03:10
TRACK 09 AUDIO
TITLE "Call It Suicide"
PERFORMER "Lunatics Without Skateboards"
FLAGS DCP
INDEX 01 37:15:13
TRACK 10 AUDIO
TITLE "Is Life Death"
PERFORMER "Lunatics Without Skateboards"
FLAGS DCP
INDEX 01 42:25:42
TRACK 11 AUDIO
TITLE "Livin' With The System"
PERFORMER "Lunatics Without Skateboards"
FLAGS DCP
INDEX 01 47:35:65
TRACK 12 AUDIO
TITLE "Crossroads"
PERFORMER "Lunatics Without Skateboards"
FLAGS DCP
INDEX 01 55:21:38

Spectrum
Image


Narod.Ru

Год релиза всё же 1995 , если верить заднику , а не 1996 год как на М-А пишут :fingal:


Top
 Profile E-mail  
 
 
PostPosted: 10 Mar 2012 
хард н хэвщик (support team)
User avatar
Joined: 02 Jun 2008
Posts: 16881
Lоcаtion: Н.Новгород
Age: 32
Name: Артем
ой, а уже был релиз от гноппи :oops: http://rutracker.org/forum/viewtopic.php?t=3789153


Top
 Profile  
 
 
PostPosted: 10 Mar 2012 
Генеральный thrasher
User avatar
Joined: 03 Oct 2008
Posts: 3695
Lоcаtion: Ханты-Мансийский АО
Age: 44
Name: Сергей
Дим,прикупил что-ли?


Top
 Profile  
 
 
PostPosted: 10 Mar 2012 
Работнечег
User avatar
Joined: 28 Aug 2007
Posts: 5805
Lоcаtion: г. Москва
Age: 30
Name: Дима
Пущай и у нас будет, альбом отличный) я так заметил что не все на рутрэкер заглядывают и не знаю почему, но заметил что пару моих релизов, которые там релизили, через где-то пару месяцев были удалены, так что хз скоко там этот релиз от гноппи провисит)


Top
 Profile E-mail  
 
 
PostPosted: 10 Mar 2012 
Работнечег
User avatar
Joined: 28 Aug 2007
Posts: 5805
Lоcаtion: г. Москва
Age: 30
Name: Дима
thorbeorn wrote:
Дим,прикупил что-ли?

Ага, уже с полгода как наверное, подразорился правда тогда малость))


Top
 Profile E-mail  
 
 
PostPosted: 10 Mar 2012 
Прокъмитолист
User avatar
Joined: 12 Aug 2007
Posts: 6545
Lоcаtion: Санктъ-Петербуркъ
Age: 51
Name: Олекъ
:thanx:

_________________
прокъметол - это музыко, от которово есть прок (ы)


Top
 Profile  
 
 
PostPosted: 10 Mar 2012 
Анатолий
User avatar
Joined: 18 Oct 2008
Posts: 3411
Lоcаtion: Армавир
Age: 41
Name: Анатолий
Ух ты!!! Ё-моё!!! Какая приятная неожиданность!!!

Вельми понеже за такую цацку!!! :thanx: :true:


Top
 Profile E-mail  
 
 
PostPosted: 10 Mar 2012 
Хиппей (support team)
User avatar
Joined: 30 Jul 2007
Posts: 111763
Lоcаtion: Киев (Kyiv, UA)
Age: 45
Name: Andrey
:thanx:

Пргдицо :dance:

mirror: Speedy l Narod

_________________


Top
 Profile E-mail  
 
 
PostPosted: 10 Mar 2012 
Персональный статус
User avatar
Joined: 22 Oct 2011
Posts: 352
Lоcаtion: Moscow
Age: 60
Name: Серёжа
:thanx:


Top
 Profile E-mail  
 
Display posts from previous:  Sort by  
Post new topic Reply to topic  [ 9 posts ] 

All times are UTC + 3 hours


Who is online

Users browsing this forum: No registered users and 1 guest


You cannot post new topics in this forum
You cannot reply to topics in this forum
You cannot edit your posts in this forum
You cannot delete your posts in this forum
You cannot post attachments in this forum

Search for:
Яндекс.Метрика
Powered by phpBB © 2000, 2002, 2005, 2007 phpBB Group