\m/ 80's metal \m/

Информационно-аналитический форум "80 см пыли" (In Search We Trust) "У нас никто никуда не спешит"
Me For You - http://me-4u.com
It is currently 22 Jul 2019

All times are UTC + 3 hours

Spoiler
Chat - temporary registration for foreign users (please leave your application here)







Post new topic Reply to topic  [ 5 posts ] 
Author Message
 
PostPosted: 02 Oct 2011 
А может смените мне статус?..
User avatar
Joined: 08 Nov 2007
Posts: 634
Lоcаtion: Crimea, UA
Age: 32
Name: Анатолий
Attachment:
front.jpg
front.jpg [ 133.81 KiB | Viewed 893 times ]

Artist: L.A Guns
Album: American Hardcore
Label: CMC International BVCP 984
Genre: хрень какая-то :fingal:
Year: 1996
Format: EAC-FLAC-LOG-Scans
Size: 403 mb. +3%

************************************************

Tracklist:

1. "F.N.A." - 0:22
2. "What I've Become" - 3:36
3. "Unnatural Act" - 4:10
4. "Give" - 3:16
5. "Don't Pray" - 4:07
6. "Pissed" - 4:01
7. "Mine" - 3:36
8. "Kevorkian" - 4:46
9. "Hey World" - 5:03
10. "Next Generation" - 2:33
11. "Hugs And Needles" - 3:09
12. "I Am Alive" - 07:00
13. "Black Sabbath" - 19:02 Japan bonus

Total playing time 1:04:41

************************************************

Line-up:
Chris Van Dahl: lead vocals
Tracii Guns: guitar
Johnny Crypt: bass guitar
Steve Riley: drums

cue
REM GENRE Rock
REM DATE 1996
REM DISCID A50F290D
REM COMMENT "ExactAudioCopy v0.99pb4"
PERFORMER "L.A. Guns"
TITLE "American Hardcore"
FILE "L.A. Guns - American Hardcore.flac" WAVE
TRACK 01 AUDIO
TITLE "F.N.A."
PERFORMER "L.A. Guns"
INDEX 00 00:00:00
INDEX 01 00:00:37
TRACK 02 AUDIO
TITLE "What I've Become"
PERFORMER "L.A. Guns"
INDEX 01 00:22:25
TRACK 03 AUDIO
TITLE "Unnatural Act"
PERFORMER "L.A. Guns"
INDEX 01 03:58:50
TRACK 04 AUDIO
TITLE "Give"
PERFORMER "L.A. Guns"
INDEX 01 08:08:30
TRACK 05 AUDIO
TITLE "Don't Pray"
PERFORMER "L.A. Guns"
INDEX 01 11:24:60
TRACK 06 AUDIO
TITLE "Pissed"
PERFORMER "L.A. Guns"
INDEX 01 15:31:70
TRACK 07 AUDIO
TITLE "Mine"
PERFORMER "L.A. Guns"
INDEX 01 19:33:02
TRACK 08 AUDIO
TITLE "Kevorkian"
PERFORMER "L.A. Guns"
INDEX 01 23:09:15
TRACK 09 AUDIO
TITLE "Hey World"
PERFORMER "L.A. Guns"
INDEX 01 27:55:00
TRACK 10 AUDIO
TITLE "Next Generation"
PERFORMER "L.A. Guns"
INDEX 01 32:57:07
TRACK 11 AUDIO
TITLE "Hugs And Needles"
PERFORMER "L.A. Guns"
INDEX 01 35:29:50
TRACK 12 AUDIO
TITLE "I Am Alive"
PERFORMER "L.A. Guns"
INDEX 00 38:37:45
INDEX 01 38:38:70
TRACK 13 AUDIO
TITLE "Black Sabbath"
PERFORMER "L.A. Guns"
INDEX 01 45:39:02

log
Exact Audio Copy V0.99 prebeta 4 from 23. January 2008

Отчёт EAC об извлечении, выполненном 28. сентября 2011, 12:55

L.A. Guns / American Hardcore

Дисковод: HL-DT-STDVDRAM GSA-T20N Adapter: 1 ID: 1

Режим чтения : Достоверность
Использование точного потока : Да
Отключение кэша аудио : Да
Использование указателей C2 : Нет

Коррекция смещения при чтении : 667
Способность читать области Lead-in и Lead-out : Нет
Заполнение пропущенных сэмплов тишиной : Да
Удаление блоков с тишиной в начале и конце : Нет
При вычислениях CRC использовались нулевые сэмплы : Да
Интерфейс : Установленный внешний ASPI-интерфейс

Выходной формат : Внутренние WAV-операции
Формат сэмплов : 44.100 Гц; 16 бит; стерео


TOC извлечённого CD

Трек | Старт | Длительность | Начальный сектор | Конечный сектор
---------------------------------------------------------------------
1 | 0:00.37 | 0:21.63 | 37 | 1674
2 | 0:22.25 | 3:36.25 | 1675 | 17899
3 | 3:58.50 | 4:09.55 | 17900 | 36629
4 | 8:08.30 | 3:16.30 | 36630 | 51359
5 | 11:24.60 | 4:07.10 | 51360 | 69894
6 | 15:31.70 | 4:01.07 | 69895 | 87976
7 | 19:33.02 | 3:36.13 | 87977 | 104189
8 | 23:09.15 | 4:45.60 | 104190 | 125624
9 | 27:55.00 | 5:02.07 | 125625 | 148281
10 | 32:57.07 | 2:32.43 | 148282 | 159724
11 | 35:29.50 | 3:09.20 | 159725 | 173919
12 | 38:38.70 | 7:00.07 | 173920 | 205426
13 | 45:39.02 | 19:02.35 | 205427 | 291111


Характеристики диапазона извлечения и сообщения об ошибках

Выбранный диапазон

Имя файла G:\LOSSLESS\L.A. Guns\1996 - American Hardcore [Japan]\L.A. Guns - American Hardcore.wav

Пиковый уровень 99.8 %
Качество диапазона 99.9 %
CRC копии C6C7FB94
Копирование... OK

Ошибок не произошло


AccurateRip: сводка

Трек 1 точное извлечение (доверие 1) [CCAEC972]
Трек 2 точное извлечение (доверие 1) [3FC7905E]
Трек 3 точное извлечение (доверие 1) [4B1BC034]
Трек 4 точное извлечение (доверие 1) [FFCF81E7]
Трек 5 точное извлечение (доверие 1) [2D0F4873]
Трек 6 точное извлечение (доверие 1) [BB1D6DE6]
Трек 7 точное извлечение (доверие 1) [29E7DD08]
Трек 8 точное извлечение (доверие 1) [C5E1A00F]
Трек 9 точное извлечение (доверие 1) [47E49C44]
Трек 10 точное извлечение (доверие 1) [DC0AFE65]
Трек 11 точное извлечение (доверие 1) [6CE08C0F]
Трек 12 точное извлечение (доверие 1) [4EC56EE8]
Трек 13 точное извлечение (доверие 1) [303B4E80]

Все треки извлечены точно

Конец отчёта


Multiupload


Top
 Profile  
 
 
PostPosted: 02 Oct 2011 
хард н хэвщик (support team)
User avatar
Joined: 02 Jun 2008
Posts: 16881
Lоcаtion: Н.Новгород
Age: 32
Name: Артем
Nitro wrote:
Genre: хрень какая-то :fingal:

kevorkian очень клевая вещь! :true: :true:


Top
 Profile  
 
 
PostPosted: 02 Oct 2011 
Хиппей (support team)
User avatar
Joined: 30 Jul 2007
Posts: 113588
Lоcаtion: Киев (Kyiv, UA)
Age: 46
Name: Andrey
:thanx:

Тут с альтернативкой альбом?

_________________


Top
 Profile E-mail  
 
 
PostPosted: 03 Oct 2011 
А может смените мне статус?..
User avatar
Joined: 08 Nov 2007
Posts: 634
Lоcаtion: Crimea, UA
Age: 32
Name: Анатолий
Quote:
Тут с альтернативкой альбом?


ага, примазефаченый.

Quote:
kevorkian очень клевая вещь!


Вторая половина альбома поинтересней будет. Мне больше всего "I Am Alive" понравилась. И кавер занятный, ван Дал под Оззи пытается косить :crazy:


Top
 Profile  
 
 
PostPosted: 03 Oct 2011 
Хиппей (support team)
User avatar
Joined: 30 Jul 2007
Posts: 113588
Lоcаtion: Киев (Kyiv, UA)
Age: 46
Name: Andrey
Ага, значит я его слушал.
Вещь, мне нравится, как и такой же альтернативный альбом Скид Роу :true:

Странное вроде дело, но у меня таких альбомов любимых с десятка три наберется (периода 94-96 гг), а дальше всё, как отворожило от альтернативного звучания... :yyy:

_________________


Top
 Profile E-mail  
 
Display posts from previous:  Sort by  
Post new topic Reply to topic  [ 5 posts ] 

All times are UTC + 3 hours


Who is online

Users browsing this forum: No registered users and 1 guest


You cannot post new topics in this forum
You cannot reply to topics in this forum
You cannot edit your posts in this forum
You cannot delete your posts in this forum
You cannot post attachments in this forum

Search for:
Яндекс.Метрика
Powered by phpBB © 2000, 2002, 2005, 2007 phpBB Group