\m/ 80's metal \m/

Информационно-аналитический форум "80 см пыли" (In Search We Trust) "У нас никто никуда не спешит"
Me For You - http://me-4u.com
It is currently 22 Aug 2019

All times are UTC + 3 hours

Spoiler
Chat - temporary registration for foreign users (please leave your application here)







Post new topic Reply to topic  [ 1 post ] 
Author Message
 
PostPosted: 26 May 2011 
Хиппей (support team)
User avatar
Joined: 30 Jul 2007
Posts: 114041
Lоcаtion: Киев (Kyiv, UA)
Age: 46
Name: Andrey
Gurd - 1998 - Down The Drain [flac]

Attachment:
front.jpg
front.jpg [ 1.53 MiB | Viewed 195 times ]


Genre: Groove Thrash
Location: Switzerland
Format: flac+cue+log+scans
Size: 397 Mb


Line-up:
V.O. Pulver - Vocals, Guitars
Marek Felis - Bass, Vocals
Philippe - Guitars, Vocals
Tobias Roth - Drums, Percussion

    1. Down the Drain - 04:06
    2. Head Full of Shit - 04:59
    3. Dead or Alive - 04:05
    4. Bow My Head - 03:47
    5. I Remember - 05:47
    6. My Future - 05:13
    7. T.R.T.L. - 02:57
    8. Time to Forget - 04:53
    9. Caught - 04:29
    10. Help Me - 03:33
    11. Survive - 03:10
    12. Skin Up!!! - 05:47

    TPT: 52:46

Thanx to spiralarch from MMT :thanx:

MultiUp l Narod


log
Exact Audio Copy V1.0 beta 1 from 15. November 2010

EAC extraction logfile from 26. April 2011, 15:31

Gurd / Down The Drain

Used drive : Optiarc DVD RW AD-7240S Adapter: 2 ID: 0

Read mode : Secure
Utilize accurate stream : Yes
Defeat audio cache : Yes
Make use of C2 pointers : No

Read offset correction : 48
Overread into Lead-In and Lead-Out : No
Fill up missing offset samples with silence : Yes
Delete leading and trailing silent blocks : No
Null samples used in CRC calculations : Yes
Used interface : Native Win32 interface for Win NT & 2000

Used output format : Internal WAV Routines
Sample format : 44.100 Hz; 16 Bit; Stereo


TOC of the extracted CD

Track | Start | Length | Start sector | End sector
---------------------------------------------------------
1 | 0:00.00 | 4:05.67 | 0 | 18441
2 | 4:05.67 | 4:58.55 | 18442 | 40846
3 | 9:04.47 | 4:05.28 | 40847 | 59249
4 | 13:10.00 | 3:47.32 | 59250 | 76306
5 | 16:57.32 | 5:47.03 | 76307 | 102334
6 | 22:44.35 | 5:13.19 | 102335 | 125828
7 | 27:57.54 | 2:57.48 | 125829 | 139151
8 | 30:55.27 | 4:52.73 | 139152 | 161124
9 | 35:48.25 | 4:28.65 | 161125 | 181289
10 | 40:17.15 | 3:32.50 | 181290 | 197239
11 | 43:49.65 | 3:10.07 | 197240 | 211496
12 | 46:59.72 | 5:46.65 | 211497 | 237511


Range status and errors

Selected range

Filename D:\spiralarch\Gurd - Down The Drain.wav

Peak level 100.0 %
Extraction speed 0.4 X
Range quality 100.0 %
Copy CRC A485C1AA
Copy OK

No errors occurred


AccurateRip summary

Track 1 accurately ripped (confidence 9) [34080D75]
Track 2 accurately ripped (confidence 10) [B64AF907]
Track 3 accurately ripped (confidence 9) [C678C0C1]
Track 4 accurately ripped (confidence 9) [2F0A2482]
Track 5 accurately ripped (confidence 9) [DC34C86A]
Track 6 accurately ripped (confidence 9) [E75C6AC9]
Track 7 accurately ripped (confidence 9) [13554F39]
Track 8 accurately ripped (confidence 9) [EB104C34]
Track 9 accurately ripped (confidence 9) [50F9FB80]
Track 10 accurately ripped (confidence 9) [EBB6A149]
Track 11 accurately ripped (confidence 9) [8377EB5C]
Track 12 accurately ripped (confidence 10) [0BEA672D]

All tracks accurately ripped

End of status report

==== Log checksum 12EC49F1FD020CF66874DAA5B54D74DA56512C251F7E58FE0A668C90F7CF90FE ====


cue
REM GENRE "Thrash Metal"
REM DATE 1998
REM DISCID A80C5E0C
REM COMMENT "ExactAudioCopy v1.0b1"
PERFORMER "Gurd"
TITLE "Down The Drain"
FILE "Gurd - Down The Drain.wav" WAVE
TRACK 01 AUDIO
TITLE "Down The Drain"
PERFORMER "Gurd"
INDEX 01 00:00:00
TRACK 02 AUDIO
TITLE "Head Full Of Shit"
PERFORMER "Gurd"
INDEX 01 04:05:67
TRACK 03 AUDIO
TITLE "Dead Or Alive"
PERFORMER "Gurd"
INDEX 01 09:04:47
TRACK 04 AUDIO
TITLE "Bow My Head"
PERFORMER "Gurd"
INDEX 01 13:10:00
TRACK 05 AUDIO
TITLE "I Remember"
PERFORMER "Gurd"
INDEX 01 16:57:32
TRACK 06 AUDIO
TITLE "My Future"
PERFORMER "Gurd"
INDEX 01 22:44:35
TRACK 07 AUDIO
TITLE "T.R.T.L."
PERFORMER "Gurd"
INDEX 01 27:57:54
TRACK 08 AUDIO
TITLE "Time To Forget"
PERFORMER "Gurd"
INDEX 01 30:55:27
TRACK 09 AUDIO
TITLE "Caught"
PERFORMER "Gurd"
INDEX 01 35:48:25
TRACK 10 AUDIO
TITLE "Help Me"
PERFORMER "Gurd"
INDEX 01 40:17:15
TRACK 11 AUDIO
TITLE "Survive"
PERFORMER "Gurd"
INDEX 01 43:49:65
TRACK 12 AUDIO
TITLE "Skin Up!!!"
PERFORMER "Gurd"
INDEX 01 46:59:72

_________________


Top
 Profile E-mail  
 
Display posts from previous:  Sort by  
Post new topic Reply to topic  [ 1 post ] 

All times are UTC + 3 hours


Who is online

Users browsing this forum: No registered users and 1 guest


You cannot post new topics in this forum
You cannot reply to topics in this forum
You cannot edit your posts in this forum
You cannot delete your posts in this forum
You cannot post attachments in this forum

Search for:
Яндекс.Метрика
Powered by phpBB © 2000, 2002, 2005, 2007 phpBB Group