\m/ 80's metal \m/

Информационно-аналитический форум "80 см пыли" (In Search We Trust) "У нас никто никуда не спешит"
Me For You - http://me-4u.com
It is currently 07 Dec 2019

All times are UTC + 3 hours

Spoiler
Chat - temporary registration for foreign users (please leave your application here)







Post new topic Reply to topic  [ 2 posts ] 
Author Message
 
PostPosted: 26 May 2011 
Хиппей (support team)
User avatar
Joined: 30 Jul 2007
Posts: 116001
Lоcаtion: Киев (Kyiv, UA)
Age: 46
Name: Andrey
Gurd - 1997 - D-fect The Remixes [flac]

Attachment:
front.jpg
front.jpg [ 1.5 MiB | Viewed 197 times ]


Genre: Electronic Groovy Thrashing Mosh
Location: Switzerland
Format: flac+cue+log+covers
Size: 247 Mb


    1. Get Up (Caveman remix)
    2. Heaven Sent (Stop Denying edit)
    3. Go-Go-Go (Vibe-Master remix)
    4. We've Been Told (Powder Rose remix)
    5. Bullshit (Splatter remix)
    6. Heaven Sent (Sweet remix)
    7. Insane (D-Fect leftover)
    8. 102 (D-Fect leftover)

    TPT: 35:16

MultiUp l Narod

Thanx to spiralarch from MMT


log
Exact Audio Copy V1.0 beta 1 from 15. November 2010

EAC extraction logfile from 18. April 2011, 1:16

Gurd / D-fect: The Remixes

Used drive : Optiarc DVD RW AD-7240S Adapter: 2 ID: 0

Read mode : Secure
Utilize accurate stream : Yes
Defeat audio cache : Yes
Make use of C2 pointers : No

Read offset correction : 48
Overread into Lead-In and Lead-Out : No
Fill up missing offset samples with silence : Yes
Delete leading and trailing silent blocks : No
Null samples used in CRC calculations : Yes
Used interface : Native Win32 interface for Win NT & 2000

Used output format : Internal WAV Routines
Sample format : 44.100 Hz; 16 Bit; Stereo


TOC of the extracted CD

Track | Start | Length | Start sector | End sector
---------------------------------------------------------
1 | 0:00.00 | 3:27.37 | 0 | 15561
2 | 3:27.37 | 4:51.50 | 15562 | 37436
3 | 8:19.12 | 5:20.03 | 37437 | 61439
4 | 13:39.15 | 4:53.55 | 61440 | 83469
5 | 18:32.70 | 5:45.20 | 83470 | 109364
6 | 24:18.15 | 3:18.72 | 109365 | 124286
7 | 27:37.12 | 3:37.00 | 124287 | 140561
8 | 31:14.12 | 4:02.13 | 140562 | 158724


Range status and errors

Selected range

Filename D:\spiralarch\Gurd - D-fect The Remixes.wav

Peak level 100.0 %
Extraction speed 0.4 X
Range quality 100.0 %
Copy CRC A342E346
Copy OK

No errors occurred


AccurateRip summary

Track 1 accurately ripped (confidence 4) [41628378]
Track 2 accurately ripped (confidence 4) [5B89A133]
Track 3 accurately ripped (confidence 4) [B9310AB7]
Track 4 accurately ripped (confidence 4) [81E787C0]
Track 5 accurately ripped (confidence 4) [4D6BB8CB]
Track 6 accurately ripped (confidence 4) [92D6B3EF]
Track 7 accurately ripped (confidence 4) [8FB6ADB4]
Track 8 accurately ripped (confidence 4) [6421794E]

All tracks accurately ripped

End of status report

==== Log checksum B80F5E2FF38C4970475AFE709A044B291BEC71587DF510F6100B4AE2371A11DC ====


cue
REM GENRE Metal
REM DATE 1997
REM DISCID 5B084408
REM COMMENT "ExactAudioCopy v1.0b1"
PERFORMER "Gurd"
TITLE "D-fect: The Remixes"
FILE "Gurd - D-fect The Remixes.wav" WAVE
TRACK 01 AUDIO
TITLE "Get Up (Caveman-remix)"
PERFORMER "Gurd"
INDEX 01 00:00:00
TRACK 02 AUDIO
TITLE "Heaven Sent (Stop Denying edit)"
PERFORMER "Gurd"
INDEX 01 03:27:37
TRACK 03 AUDIO
TITLE "Go-Go-Go (Vibe-Master-remix)"
PERFORMER "Gurd"
INDEX 01 08:19:12
TRACK 04 AUDIO
TITLE "We've Been Told (Powder-Rose-remix)"
PERFORMER "Gurd"
INDEX 01 13:39:15
TRACK 05 AUDIO
TITLE "Bullshit (Splatter-remix)"
PERFORMER "Gurd"
INDEX 00 18:31:60
INDEX 01 18:32:70
TRACK 06 AUDIO
TITLE "Heaven Sent (Sweet-remix)"
PERFORMER "Gurd"
INDEX 01 24:18:15
TRACK 07 AUDIO
TITLE "Insane"
PERFORMER "Gurd"
INDEX 00 27:35:72
INDEX 01 27:37:12
TRACK 08 AUDIO
TITLE "102"
PERFORMER "Gurd"
INDEX 01 31:14:12

_________________


Top
 Profile E-mail  
 
 
PostPosted: 02 Jun 2011 
Хиппей (support team)
User avatar
Joined: 30 Jul 2007
Posts: 116001
Lоcаtion: Киев (Kyiv, UA)
Age: 46
Name: Andrey
Спасибо группе за мою счастливую юность, и что я их раньше не слышал :true:
Потанцевал :ura: Заодно и проблевался :crazy:

Без оценки. Очень уж сложный альбом для того, чтобы постичь все глубины его непознанных глубин :umnik:

_________________


Top
 Profile E-mail  
 
Display posts from previous:  Sort by  
Post new topic Reply to topic  [ 2 posts ] 

All times are UTC + 3 hours


Who is online

Users browsing this forum: No registered users and 1 guest


You cannot post new topics in this forum
You cannot reply to topics in this forum
You cannot edit your posts in this forum
You cannot delete your posts in this forum
You cannot post attachments in this forum

Search for:
Яндекс.Метрика
Powered by phpBB © 2000, 2002, 2005, 2007 phpBB Group