\m/ 80's metal \m/

Информационно-аналитический форум "80 см пыли" (In Search We Trust) "У нас никто никуда не спешит"
Me For You - http://me-4u.com
It is currently 21 Aug 2019

All times are UTC + 3 hours

Spoiler
Chat - temporary registration for foreign users (please leave your application here)







Post new topic Reply to topic  [ 5 posts ] 
Author Message
 
PostPosted: 12 Apr 2011 
Генеральный thrasher
User avatar
Joined: 03 Oct 2008
Posts: 3717
Lоcаtion: Ханты-Мансийский АО
Age: 44
Name: Сергей
Image

Year:1997
Style:Hardcore
Country:U.S.A.
Audio:Flac+Cue+Log
Size:315Mb
Source:my CD
Label:Taang! Records

Line-Up:
Chris Doherty - lead vocals,guitar
Walter Gustafson - drums
Mike Earls - guitar
Matt Sandonato - bass

Tracklist:
1. Eviction Party 01:10
2. Wash The Blood 02:19
3. Break The Bottle 02:05
4. Hole In The Road 02:01
5. Death Of The Party 02:30
6. I Missed It 01:04
7. Beach Whistle 03:50
8. Don't You Know 01:42
9. Tricked Into Bed Again 01:47
10. Denied 01:00
11. This Job Sucks 02:10
12. Out On The Couch 02:10
13. Weekend Millionaire 02:45
14. I'll Worry About It Monday 02:37
15. Time To Pay 02:14
16. Say Good Buy 02:00
17. Livin' In Oblivion 02:02
18. Accidental Overdose 02:09
19. 6000 Crucified Slaves 02:11
20. Suspect Device 02:12
21. Penalty Box 01:02
22. To The Point 00:55
23. Here To Stay 01:13

Cue
REM GENRE Hardcore
REM DATE 1997
REM DISCID 230A9117
REM COMMENT "ExactAudioCopy v0.99pb5"
PERFORMER "Gang Green"
TITLE "Another Case Of Brewtality"
FILE "Gang Green - Another Case Of Brewtality.flac" WAVE
TRACK 01 AUDIO
TITLE "Eviction Party"
PERFORMER "Gang Green"
FLAGS DCP
INDEX 00 00:00:00
INDEX 01 00:00:15
TRACK 02 AUDIO
TITLE "Wash The Blood"
PERFORMER "Gang Green"
FLAGS DCP
INDEX 01 01:09:59
TRACK 03 AUDIO
TITLE "Break The Bottle"
PERFORMER "Gang Green"
FLAGS DCP
INDEX 00 03:28:23
INDEX 01 03:29:08
TRACK 04 AUDIO
TITLE "Hole (In The Road)"
PERFORMER "Gang Green"
FLAGS DCP
INDEX 01 05:33:73
TRACK 05 AUDIO
TITLE "Death Of The Party"
PERFORMER "Gang Green"
FLAGS DCP
INDEX 00 07:34:24
INDEX 01 07:34:69
TRACK 06 AUDIO
TITLE "I Missed It"
PERFORMER "Gang Green"
FLAGS DCP
INDEX 00 10:04:29
INDEX 01 10:04:65
TRACK 07 AUDIO
TITLE "Beach Whistle"
PERFORMER "Gang Green"
FLAGS DCP
INDEX 00 11:08:69
INDEX 01 11:08:70
TRACK 08 AUDIO
TITLE "Don't You Know"
PERFORMER "Gang Green"
FLAGS DCP
INDEX 01 14:59:28
TRACK 09 AUDIO
TITLE "Tricked Into Bed.....Again"
PERFORMER "Gang Green"
FLAGS DCP
INDEX 00 16:39:74
INDEX 01 16:40:70
TRACK 10 AUDIO
TITLE "Denied"
PERFORMER "Gang Green"
FLAGS DCP
INDEX 01 18:27:61
TRACK 11 AUDIO
TITLE "This Job Sucks"
PERFORMER "Gang Green"
FLAGS DCP
INDEX 00 19:27:14
INDEX 01 19:27:70
TRACK 12 AUDIO
TITLE "Out On The Couch"
PERFORMER "Gang Green"
FLAGS DCP
INDEX 00 21:37:11
INDEX 01 21:37:56
TRACK 13 AUDIO
TITLE "Weekend Millionaire"
PERFORMER "Gang Green"
FLAGS DCP
INDEX 00 23:46:51
INDEX 01 23:47:25
TRACK 14 AUDIO
TITLE "I'll Worry About It Monday"
PERFORMER "Gang Green"
FLAGS DCP
INDEX 00 26:31:22
INDEX 01 26:31:67
TRACK 15 AUDIO
TITLE "Time To Pay"
PERFORMER "Gang Green"
FLAGS DCP
INDEX 00 29:06:25
INDEX 01 29:08:70
TRACK 16 AUDIO
TITLE "Say Good Buy"
PERFORMER "Gang Green"
FLAGS DCP
INDEX 00 31:22:57
INDEX 01 31:22:65
TRACK 17 AUDIO
TITLE "Livin' In Oblivion"
PERFORMER "Gang Green"
FLAGS DCP
INDEX 00 33:22:10
INDEX 01 33:22:55
TRACK 18 AUDIO
TITLE "Accidental Overdose"
PERFORMER "Gang Green"
FLAGS DCP
INDEX 00 35:24:00
INDEX 01 35:24:45
TRACK 19 AUDIO
TITLE "6,000 Crucified Slaves"
PERFORMER "Gang Green"
FLAGS DCP
INDEX 00 37:33:18
INDEX 01 37:33:22
TRACK 20 AUDIO
TITLE "Suspect Device"
PERFORMER "Gang Green"
FLAGS DCP
INDEX 00 39:43:37
INDEX 01 39:43:70
TRACK 21 AUDIO
TITLE "Penalty Box"
PERFORMER "Gang Green"
FLAGS DCP
INDEX 00 41:55:57
INDEX 01 41:56:27
TRACK 22 AUDIO
TITLE "To The Point"
PERFORMER "Gang Green"
FLAGS DCP
INDEX 00 42:57:35
INDEX 01 42:58:05
TRACK 23 AUDIO
TITLE "Here To Stay"
PERFORMER "Gang Green"
FLAGS DCP
INDEX 00 43:52:02
INDEX 01 43:52:46


Log
Exact Audio Copy V0.99 prebeta 5 from 4. May 2009

Отчёт EAC об извлечении, выполненном 8. апреля 2011, 9:06

Gang Green / Another Case Of Brewtality

Дисковод: TSSTcorpCDDVDW SH-S202N Adapter: 0 ID: 1

Режим чтения : Достоверность
Использование точного потока : Да
Отключение кэша аудио : Да
Использование указателей C2 : Нет

Коррекция смещения при чтении : 6
Способность читать области Lead-in и Lead-out : Нет
Заполнение пропущенных сэмплов тишиной : Да
Удаление блоков с тишиной в начале и конце : Нет
При вычислениях CRC использовались нулевые сэмплы : Да
Интерфейс : Встроенный Win32-интерфейс для Win NT/2000

Выходной формат : Пользовательский кодировщик
Выбранный битрейт : 768 kBit/s
Качество : Высокий
Добавление ID3-тэга : Нет
Утилита сжатия : C:\Program Files\Exact Audio Copy\FLAC\FLAC.EXE
Дополнительные параметры : -6 -V -T "ARTIST=%a" -T "TITLE=%t" -T "ALBUM=%g" -T "DATE=%y" -T "TRACKNUMBER=%n" -T "GENRE=%m" -T "COMMENT=%e" %s -o %d


TOC извлечённого CD

Трек | Старт | Длительность | Начальный сектор | Конечный сектор
---------------------------------------------------------------------
1 | 0:00.15 | 1:09.44 | 15 | 5233
2 | 1:09.59 | 2:19.24 | 5234 | 15682
3 | 3:29.08 | 2:04.65 | 15683 | 25047
4 | 5:33.73 | 2:00.71 | 25048 | 34118
5 | 7:34.69 | 2:29.71 | 34119 | 45364
6 | 10:04.65 | 1:04.05 | 45365 | 50169
7 | 11:08.70 | 3:50.33 | 50170 | 67452
8 | 14:59.28 | 1:41.42 | 67453 | 75069
9 | 16:40.70 | 1:46.66 | 75070 | 83085
10 | 18:27.61 | 1:00.09 | 83086 | 87594
11 | 19:27.70 | 2:09.61 | 87595 | 97330
12 | 21:37.56 | 2:09.44 | 97331 | 107049
13 | 23:47.25 | 2:44.42 | 107050 | 119391
14 | 26:31.67 | 2:37.03 | 119392 | 131169
15 | 29:08.70 | 2:13.70 | 131170 | 141214
16 | 31:22.65 | 1:59.65 | 141215 | 150204
17 | 33:22.55 | 2:01.65 | 150205 | 159344
18 | 35:24.45 | 2:08.52 | 159345 | 168996
19 | 37:33.22 | 2:10.48 | 168997 | 178794
20 | 39:43.70 | 2:12.32 | 178795 | 188726
21 | 41:56.27 | 1:01.53 | 188727 | 193354
22 | 42:58.05 | 0:54.41 | 193355 | 197445
23 | 43:52.46 | 1:12.60 | 197446 | 202905


Характеристики диапазона извлечения и сообщения об ошибках

Выбранный диапазон

Имя файла D:\Lossless Music\Gang Green\Gang Green - Another Case Of Brewtality.wav

Пиковый уровень 98.8 %
Качество диапазона 100.0 %
CRC копии 61CB2D7C
Копирование... OK

Ошибок не произошло


AccurateRip: сводка

Трек 1 точное извлечение (доверие 4) [C54460F4]
Трек 2 точное извлечение (доверие 4) [DD5C7FD8]
Трек 3 точное извлечение (доверие 4) [1B249532]
Трек 4 точное извлечение (доверие 4) [A24BD5A3]
Трек 5 точное извлечение (доверие 4) [114E6151]
Трек 6 точное извлечение (доверие 4) [A3A91A07]
Трек 7 точное извлечение (доверие 4) [85D65B34]
Трек 8 точное извлечение (доверие 4) [9EFD9DD5]
Трек 9 точное извлечение (доверие 4) [5E4B71F2]
Трек 10 точное извлечение (доверие 4) [1F308174]
Трек 11 точное извлечение (доверие 4) [3CB94550]
Трек 12 точное извлечение (доверие 4) [26B5C58A]
Трек 13 точное извлечение (доверие 4) [7AA19ECA]
Трек 14 точное извлечение (доверие 4) [8F0F27A1]
Трек 15 точное извлечение (доверие 4) [E3F870AA]
Трек 16 точное извлечение (доверие 4) [6EA6DD72]
Трек 17 точное извлечение (доверие 4) [604840A0]
Трек 18 точное извлечение (доверие 4) [F1BA0863]
Трек 19 точное извлечение (доверие 4) [DC7E46D2]
Трек 20 точное извлечение (доверие 4) [94CB8E4E]
Трек 21 точное извлечение (доверие 4) [F53BDADA]
Трек 22 точное извлечение (доверие 4) [AC8E5B91]
Трек 23 точное извлечение (доверие 4) [A65AD75A]

Все треки извлечены точно

Конец отчёта


Another Case of Brewtality


Top
 Profile  
 
 
PostPosted: 12 Apr 2011 
А может смените мне статус?..
User avatar
Joined: 08 Nov 2007
Posts: 634
Lоcаtion: Crimea, UA
Age: 33
Name: Анатолий
Спасибо Серёга!


Top
 Profile  
 
 
PostPosted: 12 Apr 2011 
Хиппей (support team)
User avatar
Joined: 30 Jul 2007
Posts: 114011
Lоcаtion: Киев (Kyiv, UA)
Age: 46
Name: Andrey
:thanx:

mirror: MultiUp l Narod

_________________


Top
 Profile E-mail  
 
 
PostPosted: 16 Apr 2011 
Работнечег
User avatar
Joined: 28 Aug 2007
Posts: 5935
Lоcаtion: г. Москва
Age: 30
Name: Дима
Спасибо, Серёг! :true:


Top
 Profile E-mail  
 
 
PostPosted: 26 Apr 2011 
Alive Again
User avatar
Joined: 17 Dec 2008
Posts: 4747
Lоcаtion: Курск Воронеж Оскол
Age: 45
Name: Дмитрий
Image


Top
 Profile E-mail  
 
Display posts from previous:  Sort by  
Post new topic Reply to topic  [ 5 posts ] 

All times are UTC + 3 hours


Who is online

Users browsing this forum: No registered users and 1 guest


You cannot post new topics in this forum
You cannot reply to topics in this forum
You cannot edit your posts in this forum
You cannot delete your posts in this forum
You cannot post attachments in this forum

Search for:
Яндекс.Метрика
Powered by phpBB © 2000, 2002, 2005, 2007 phpBB Group