\m/ 80's metal \m/

Информационно-аналитический форум "80 см пыли" (In Search We Trust) "У нас никто никуда не спешит"
Me For You - http://me-4u.com
It is currently 17 Nov 2019

All times are UTC + 3 hours

Spoiler
Chat - temporary registration for foreign users (please leave your application here)







Post new topic Reply to topic  [ 2 posts ] 
Author Message
 
PostPosted: 11 Mar 2011 
Генеральный thrasher
User avatar
Joined: 03 Oct 2008
Posts: 3743
Lоcаtion: Ханты-Мансийский АО
Age: 44
Name: Сергей
Image

Year:1988 (2007 Re-Issue)
Style:Hardcore/Crossover
Country:U.S.A.
Audio:Flac+Cue+Log+Scans
Size:338Mb
Label:Metal Mind

Line-Up:
Chris Doherty - lead vocals,guitar
Brian Betzger - drums
Fritz - lead guitar
Joe Gittleman - bass

Tracklist:
1. Church of Fun 03:13
2. Just One Bullet 03:05
3. We Can Go 02:22
4. Tear Down The Walls 03:15
5. Flight 911 04:05
6. Bedroom Of Doom 04:19
7. Casino Jungle 02:25
8. Why Should You
9. I'm Still Young 02:42
10. Ballad 02:35
11. Bartender 03:21
12. Lost Chapter 03:02
13. Rent 02:11
13. Put Her On Top 03:46
14. Cum In U 03:04

Cue
REM DISCID D90BB110
REM COMMENT "ExactAudioCopy v0.99pb5"
PERFORMER "Gang Green"
TITLE "Older... Budweiser"
FILE "Gang Green - Older... Budweiser.flac" WAVE
TRACK 01 AUDIO
TITLE "Church Of Fun"
PERFORMER "Gang Green"
FLAGS DCP
INDEX 01 00:00:00
TRACK 02 AUDIO
TITLE "Just One Bullet"
PERFORMER "Gang Green"
FLAGS DCP
INDEX 01 03:13:25
TRACK 03 AUDIO
TITLE "We Can Go"
PERFORMER "Gang Green"
FLAGS DCP
INDEX 01 06:18:03
TRACK 04 AUDIO
TITLE "Tear Down The Walls"
PERFORMER "Gang Green"
FLAGS DCP
INDEX 01 08:40:25
TRACK 05 AUDIO
TITLE "Flight 911"
PERFORMER "Gang Green"
FLAGS DCP
INDEX 01 11:55:43
TRACK 06 AUDIO
TITLE "Bedroom Of Doom"
PERFORMER "Gang Green"
FLAGS DCP
INDEX 01 16:00:55
TRACK 07 AUDIO
TITLE "Casio Jungle"
PERFORMER "Gang Green"
FLAGS DCP
INDEX 01 20:19:40
TRACK 08 AUDIO
TITLE "Why Should You"
PERFORMER "Gang Green"
FLAGS DCP
INDEX 01 22:44:15
TRACK 09 AUDIO
TITLE "I'm Still Young"
PERFORMER "Gang Green"
FLAGS DCP
INDEX 01 26:32:33
TRACK 10 AUDIO
TITLE "Ballad"
PERFORMER "Gang Green"
FLAGS DCP
INDEX 01 29:14:60
TRACK 11 AUDIO
TITLE "Bartender"
PERFORMER "Gang Green"
FLAGS DCP
INDEX 01 31:49:18
TRACK 12 AUDIO
TITLE "Lost Chapter"
PERFORMER "Gang Green"
FLAGS DCP
INDEX 01 35:10:01
TRACK 13 AUDIO
TITLE "Rent"
PERFORMER "Gang Green"
FLAGS DCP
INDEX 01 38:12:66
TRACK 14 AUDIO
TITLE "Put Her On Top"
PERFORMER "Gang Green"
FLAGS DCP
INDEX 01 40:23:03
TRACK 15 AUDIO
TITLE "Cum In U"
PERFORMER "Gang Green"
FLAGS DCP
INDEX 01 44:09:32


Log
Exact Audio Copy V0.99 prebeta 5 from 4. May 2009

Отчёт EAC об извлечении, выполненном 7. марта 2011, 14:45

Gang Green / Older... Budweiser

Дисковод: TSSTcorpCDDVDW SH-S202N Adapter: 0 ID: 1

Режим чтения : Достоверность
Использование точного потока : Да
Отключение кэша аудио : Да
Использование указателей C2 : Нет

Коррекция смещения при чтении : 6
Способность читать области Lead-in и Lead-out : Нет
Заполнение пропущенных сэмплов тишиной : Да
Удаление блоков с тишиной в начале и конце : Нет
При вычислениях CRC использовались нулевые сэмплы : Да
Интерфейс : Встроенный Win32-интерфейс для Win NT/2000

Выходной формат : Пользовательский кодировщик
Выбранный битрейт : 768 kBit/s
Качество : Высокий
Добавление ID3-тэга : Нет
Утилита сжатия : C:\Program Files\Exact Audio Copy\FLAC\FLAC.EXE
Дополнительные параметры : -6 -V -T "ARTIST=%a" -T "TITLE=%t" -T "ALBUM=%g" -T "DATE=%y" -T "TRACKNUMBER=%n" -T "GENRE=%m" -T "COMMENT=%e" %s -o %d


TOC извлечённого CD

Трек | Старт | Длительность | Начальный сектор | Конечный сектор
---------------------------------------------------------------------
1 | 0:00.00 | 3:13.25 | 0 | 14499
2 | 3:13.25 | 3:04.53 | 14500 | 28352
3 | 6:18.03 | 2:22.22 | 28353 | 39024
4 | 8:40.25 | 3:15.18 | 39025 | 53667
5 | 11:55.43 | 4:05.12 | 53668 | 72054
6 | 16:00.55 | 4:18.60 | 72055 | 91464
7 | 20:19.40 | 2:24.50 | 91465 | 102314
8 | 22:44.15 | 3:48.18 | 102315 | 119432
9 | 26:32.33 | 2:42.27 | 119433 | 131609
10 | 29:14.60 | 2:34.33 | 131610 | 143192
11 | 31:49.18 | 3:20.58 | 143193 | 158250
12 | 35:10.01 | 3:02.65 | 158251 | 171965
13 | 38:12.66 | 2:10.12 | 171966 | 181727
14 | 40:23.03 | 3:46.29 | 181728 | 198706
15 | 44:09.32 | 3:04.28 | 198707 | 212534
16 | 49:45.60 | 0:08.00 | 223935 | 224534


Характеристики диапазона извлечения и сообщения об ошибках

Выбранный диапазон

Имя файла D:\Lossless Music\Gang Green - Older... Budweiser.wav

Пиковый уровень 98.8 %
Качество диапазона 100.0 %
CRC копии 798DFB86
Копирование... OK

Ошибок не произошло


AccurateRip: сводка

Трек 1 точное извлечение (доверие 2) [E1D9FB0E]
Трек 2 точное извлечение (доверие 2) [657C7E9C]
Трек 3 точное извлечение (доверие 2) [4B4030B9]
Трек 4 точное извлечение (доверие 2) [BCCD3F49]
Трек 5 точное извлечение (доверие 2) [5E99B72B]
Трек 6 точное извлечение (доверие 2) [19DD9FFB]
Трек 7 точное извлечение (доверие 2) [E1500E4F]
Трек 8 точное извлечение (доверие 2) [592247E0]
Трек 9 точное извлечение (доверие 2) [C9520220]
Трек 10 точное извлечение (доверие 2) [542047F7]
Трек 11 точное извлечение (доверие 2) [36E7F239]
Трек 12 точное извлечение (доверие 2) [AAC53BD6]
Трек 13 точное извлечение (доверие 2) [331F87ED]
Трек 14 точное извлечение (доверие 2) [916D5F59]
Трек 15 точное извлечение (доверие 2) [8033A204]

Все треки извлечены точно

Конец отчёта


Older...Budweiser


Top
 Profile  
 
 
PostPosted: 11 Mar 2011 
Хиппей (support team)
User avatar
Joined: 30 Jul 2007
Posts: 115552
Lоcаtion: Киев (Kyiv, UA)
Age: 46
Name: Andrey
:thanx:
mirror: http://www.multiupload.com/6U6GVVB3UY

_________________


Top
 Profile E-mail  
 
Display posts from previous:  Sort by  
Post new topic Reply to topic  [ 2 posts ] 

All times are UTC + 3 hours


Who is online

Users browsing this forum: No registered users and 1 guest


You cannot post new topics in this forum
You cannot reply to topics in this forum
You cannot edit your posts in this forum
You cannot delete your posts in this forum
You cannot post attachments in this forum

Search for:
Яндекс.Метрика
cron
Powered by phpBB © 2000, 2002, 2005, 2007 phpBB Group