\m/ 80's metal \m/

Информационно-аналитический форум "80 см пыли" (In Search We Trust) "У нас никто никуда не спешит"
Me For You - http://me-4u.com
It is currently 24 Aug 2019

All times are UTC + 3 hours

Spoiler
Chat - temporary registration for foreign users (please leave your application here)







Post new topic Reply to topic  [ 6 posts ] 
Author Message
 
PostPosted: 14 Sep 2010 
ыыыы
User avatar
Joined: 17 May 2009
Posts: 952
Lоcаtion: Пушкино, МО
Age: 40
Name: Дмитрий
Image


Жанр: Hard Rock
Происхождение исполнителя: Ирландия
Год издания: 1983
Год издания данного носителя: 1986
Страна-производитель носителя: Япония
Аудио кодек: FLAC
Тип рипа: image+.cue
Битрейт аудио: lossless
Продолжительность: 43:29
Рип: Собственный
Лейбл: 10/VIRGIN
Каталоговый номер: 32VD-1009
Матрица: 32VD-1009 11 +++++ (SONY)

Треклист:
1. Victims Of The Future 06:13
2. Teenage Idol 04:07
3. Shapes Of Things To Come 04:14
4. Empty Rooms 06:37
5. Murder In The Skies 07:17
6. All I Want 04:17
7. Hold On To Love 04:27
8. Law Of The Jungle 06:16


"Куй"
REM GENRE "Hard Rock"
REM DATE 1983
REM DISCID 680A3008
REM COMMENT "ExactAudioCopy v0.99pb5"
PERFORMER "Gary Moore"
TITLE "Victims Of The Future [32VD-1009]"
FILE "Gary Moore - Victims Of The Future [32VD-1009].flac" WAVE
TRACK 01 AUDIO
TITLE "Victims Of The Future"
PERFORMER "Gary Moore"
FLAGS PRE
INDEX 01 00:00:00
TRACK 02 AUDIO
TITLE "Teenage Idol"
PERFORMER "Gary Moore"
FLAGS PRE
INDEX 01 06:13:30
TRACK 03 AUDIO
TITLE "Shapes Of Things To Come"
PERFORMER "Gary Moore"
FLAGS PRE
INDEX 01 10:20:37
TRACK 04 AUDIO
TITLE "Empty Rooms"
PERFORMER "Gary Moore"
FLAGS PRE
INDEX 00 14:33:20
INDEX 01 14:34:65
TRACK 05 AUDIO
TITLE "Murder In The Skies"
PERFORMER "Gary Moore"
FLAGS PRE
INDEX 01 21:11:30
TRACK 06 AUDIO
TITLE "All I Want"
PERFORMER "Gary Moore"
FLAGS PRE
INDEX 01 28:28:45
TRACK 07 AUDIO
TITLE "Hold On To Love"
PERFORMER "Gary Moore"
FLAGS PRE
INDEX 01 32:45:62
TRACK 08 AUDIO
TITLE "The Law Of The Jungle"
PERFORMER "Gary Moore"
FLAGS PRE
INDEX 01 37:12:67


"Лог"
Exact Audio Copy V0.99 prebeta 5 from 4. May 2009

Отчёт EAC об извлечении, выполненном 13. сентября 2010, 14:15

Gary Moore / Victims Of The Future [32VD-1009]

Дисковод: Optiarc DVD RW AD-7200A Adapter: 1 ID: 0

Режим чтения : Достоверность
Использование точного потока : Да
Отключение кэша аудио : Да
Использование указателей C2 : Нет

Коррекция смещения при чтении : 48
Способность читать области Lead-in и Lead-out : Нет
Заполнение пропущенных сэмплов тишиной : Да
Удаление блоков с тишиной в начале и конце : Нет
При вычислениях CRC использовались нулевые сэмплы : Да
Интерфейс : Встроенный Win32-интерфейс для Win NT/2000

Выходной формат : Пользовательский кодировщик
Выбранный битрейт : 128 kBit/s
Качество : Высокий
Добавление ID3-тэга : Нет
Утилита сжатия : C:\Program Files\Exact Audio Copy\Flac\flac.exe
Дополнительные параметры : -8 -V -T "artist=%a" -T "title=%t" -T "album=%g" -T "date=%y" -T "tracknumber=%n" -T "genre=%m" -T "comment=EAC


TOC извлечённого CD

Трек | Старт | Длительность | Начальный сектор | Конечный сектор
---------------------------------------------------------------------
1 | 0:00.00 | 6:13.30 | 0 | 28004
2 | 6:13.30 | 4:07.07 | 28005 | 46536
3 | 10:20.37 | 4:14.28 | 46537 | 65614
4 | 14:34.65 | 6:36.40 | 65615 | 95354
5 | 21:11.30 | 7:17.15 | 95355 | 128144
6 | 28:28.45 | 4:17.17 | 128145 | 147436
7 | 32:45.62 | 4:27.05 | 147437 | 167466
8 | 37:12.67 | 6:15.55 | 167467 | 195646


Характеристики диапазона извлечения и сообщения об ошибках

Выбранный диапазон

Имя файла Y:\Музыка\Gary Moore\1983 Victims Of The Future\Gary Moore - Victims Of The Future [32VD-1009].wav

Пиковый уровень 100.0 %
Качество диапазона 100.0 %
CRC копии 1331C78A
Копирование... OK

Ошибок не произошло


AccurateRip: сводка

Трек 1 нет в базе данных
Трек 2 нет в базе данных
Трек 3 нет в базе данных
Трек 4 нет в базе данных
Трек 5 нет в базе данных
Трек 6 нет в базе данных
Трек 7 нет в базе данных
Трек 8 нет в базе данных

Ни одного трека нет в базе AccurateRip

Конец отчёта


Состав:
Gary Moore: Guitar, vocals
Ian Paice: Drums
Neil Carter: Keyboards, vocals
Neil Murray, Mo Foster, Bob Daisley: Bass
Bobby "Prime Time" Chouinard: Additional drums
Noddy Holder: Additional backing vocals on "Shapes Of Things"

32VD-1009

_________________
Витасу до Даймонда как Алсу до Руссоса | При переразмещении - спрашивать разрешение!!


Top
 Profile  
 
 
PostPosted: 14 Sep 2010 
ыыыы
User avatar
Joined: 17 May 2009
Posts: 952
Lоcаtion: Пушкино, МО
Age: 40
Name: Дмитрий
Murder In The Skies - по поводу сбитого корейского Боинга нашими ВВС в 82 году, под влиянием этого события был наложен запрет на применение оружия по отношению к гражданским объектам при нарушение границы СССР. Здравствуй, Руст и Шереметьево -3

_________________
Витасу до Даймонда как Алсу до Руссоса | При переразмещении - спрашивать разрешение!!


Top
 Profile  
 
 
PostPosted: 15 Sep 2010 
Персональный статус
Joined: 14 May 2010
Posts: 236
Age: 37
Name: Денис
Альбом - ВЕЩЬ! Спасибо Дмитрий.

А сколько уважаемых людей поучаствовало в записи, класс.

На диске указан неверный порядок песен. ;)


Top
 Profile  
 
 
PostPosted: 15 Sep 2010 
ыыыы
User avatar
Joined: 17 May 2009
Posts: 952
Lоcаtion: Пушкино, МО
Age: 40
Name: Дмитрий
disabled
http://www.amazon.com/Victims-Future-Ga ... B000093OU5

_________________
Витасу до Даймонда как Алсу до Руссоса | При переразмещении - спрашивать разрешение!!


Top
 Profile  
 
 
PostPosted: 15 Sep 2010 
Персональный статус
Joined: 14 May 2010
Posts: 236
Age: 37
Name: Денис
я про блин говорю :)


Top
 Profile  
 
 
PostPosted: 15 Sep 2010 
ыыыы
User avatar
Joined: 17 May 2009
Posts: 952
Lоcаtion: Пушкино, МО
Age: 40
Name: Дмитрий
да я заметил это)) теперь надо понять- почему они так сделали. кто виноват и кто пойдёт за Клинским ))
Да, забыл сказать- 87-й Leatherwolf я тогда ночью взял ))

_________________
Витасу до Даймонда как Алсу до Руссоса | При переразмещении - спрашивать разрешение!!


Top
 Profile  
 
Display posts from previous:  Sort by  
Post new topic Reply to topic  [ 6 posts ] 

All times are UTC + 3 hours


Who is online

Users browsing this forum: No registered users and 1 guest


You cannot post new topics in this forum
You cannot reply to topics in this forum
You cannot edit your posts in this forum
You cannot delete your posts in this forum
You cannot post attachments in this forum

Search for:
Яндекс.Метрика
cron
Powered by phpBB © 2000, 2002, 2005, 2007 phpBB Group