\m/ 80's metal \m/

Информационно-аналитический форум "80 см пыли" (In Search We Trust) "У нас никто никуда не спешит"
Me For You - http://me-4u.com
It is currently 05 Dec 2019

All times are UTC + 3 hours

Spoiler
Chat - temporary registration for foreign users (please leave your application here)







Post new topic Reply to topic  [ 9 posts ] 
Author Message
 
PostPosted: 24 Aug 2010 
ыыыы
User avatar
Joined: 17 May 2009
Posts: 952
Lоcаtion: Пушкино, МО
Age: 41
Name: Дмитрий
Image


Жанр: Hard Rock
Происхождение исполнителя: Англия
Год издания: 1983
Год издания данного носителя: 1993
Страна-производитель носителя: Япония
Аудио кодек: FLAC
Тип рипа: image+.cue
Битрейт аудио: lossless
Продолжительность: 41:12
Рип: Собственный
Лейбл: CHRYSALIS/EMI
Каталоговый номер: TOCP-8086
Матрица: TOCP-8086 1A1 TO (TOSHIBA)

Треклист:
1. Give Me What's Mine 2:58
2. Shout 3:06
3. 50-50 4:16
4. Here We Go Again 4:19
5. Countdown to Zero 4:40
6. Somewhere Tonight 3:40
7. High Time 3:39
8. Never Before 4:04
9. Freedom 3:12
10. Samurai 7:18

"Куй"
REM GENRE "Hard Rock"
REM DATE 1983
REM DISCID 8109A70A
REM COMMENT "ExactAudioCopy v0.99pb5"
PERFORMER "Grand Prix"
TITLE "Samurai [TOCP-8086]"
FILE "Grand Prix - Samurai [TOCP-8086].flac" WAVE
TRACK 01 AUDIO
TITLE "Give Me What's Mine"
PERFORMER "Grand Prix"
INDEX 01 00:00:00
TRACK 02 AUDIO
TITLE "Shout"
PERFORMER "Grand Prix"
INDEX 00 02:57:55
INDEX 01 02:57:57
TRACK 03 AUDIO
TITLE "50-50"
PERFORMER "Grand Prix"
INDEX 00 06:03:25
INDEX 01 06:04:05
TRACK 04 AUDIO
TITLE "Here We Go Again"
PERFORMER "Grand Prix"
INDEX 00 10:18:57
INDEX 01 10:19:45
TRACK 05 AUDIO
TITLE "Countdown To Zero"
PERFORMER "Grand Prix"
INDEX 00 14:38:22
INDEX 01 14:38:25
TRACK 06 AUDIO
TITLE "Somewhere Tonight"
PERFORMER "Grand Prix"
INDEX 00 19:16:72
INDEX 01 19:18:20
TRACK 07 AUDIO
TITLE "High Time"
PERFORMER "Grand Prix"
INDEX 01 22:58:17
TRACK 08 AUDIO
TITLE "Never Before"
PERFORMER "Grand Prix"
INDEX 00 26:36:45
INDEX 01 26:37:30
TRACK 09 AUDIO
TITLE "Freedom"
PERFORMER "Grand Prix"
INDEX 00 30:41:15
INDEX 01 30:41:37
TRACK 10 AUDIO
TITLE "Samurai"
PERFORMER "Grand Prix"
INDEX 01 33:53:67


"Лог"
Exact Audio Copy V0.99 prebeta 5 from 4. May 2009

Отчёт EAC об извлечении, выполненном 24. августа 2010, 21:36

Grand Prix / Samurai [TOCP-8086]

Дисковод: MATSHITADVD-RAM UJ-850S Adapter: 0 ID: 0

Режим чтения : Достоверность
Использование точного потока : Да
Отключение кэша аудио : Да
Использование указателей C2 : Нет

Коррекция смещения при чтении : 102
Способность читать области Lead-in и Lead-out : Нет
Заполнение пропущенных сэмплов тишиной : Да
Удаление блоков с тишиной в начале и конце : Нет
При вычислениях CRC использовались нулевые сэмплы : Да
Интерфейс : Установленный внешний ASPI-интерфейс

Выходной формат : Пользовательский кодировщик
Выбранный битрейт : 128 kBit/s
Качество : Высокий
Добавление ID3-тэга : Нет
Утилита сжатия : C:\Program Files\Exact Audio Copy\Flac\flac.exe
Дополнительные параметры : -6 -V -T "artist=%a" -T "title=%t" -T "album=%g" -T "date=%y" -T "tracknumber=%n" -T "genre=%m" -T "comment=EAC 0.99beta5 / FLAC 1.1.0 q6" %s


TOC извлечённого CD

Трек | Старт | Длительность | Начальный сектор | Конечный сектор
---------------------------------------------------------------------
1 | 0:00.00 | 2:57.57 | 0 | 13331
2 | 2:57.57 | 3:06.23 | 13332 | 27304
3 | 6:04.05 | 4:15.40 | 27305 | 46469
4 | 10:19.45 | 4:18.55 | 46470 | 65874
5 | 14:38.25 | 4:39.70 | 65875 | 86869
6 | 19:18.20 | 3:39.72 | 86870 | 103366
7 | 22:58.17 | 3:39.13 | 103367 | 119804
8 | 26:37.30 | 4:04.07 | 119805 | 138111
9 | 30:41.37 | 3:12.30 | 138112 | 152541
10 | 33:53.67 | 7:17.58 | 152542 | 185374


Характеристики диапазона извлечения и сообщения об ошибках

Выбранный диапазон

Имя файла Y:\Музыка\Grand Prix\1983 Samurai\Grand Prix - Samurai [TOCP-8086].wav

Пиковый уровень 100.0 %
Качество диапазона 100.0 %
CRC копии B80175A0
Копирование... OK

Ошибок не произошло


AccurateRip: сводка

Трек 1 нет в базе данных
Трек 2 нет в базе данных
Трек 3 нет в базе данных
Трек 4 нет в базе данных
Трек 5 нет в базе данных
Трек 6 нет в базе данных
Трек 7 нет в базе данных
Трек 8 нет в базе данных
Трек 9 нет в базе данных
Трек 10 нет в базе данных

Ни одного трека нет в базе AccurateRip

Конец отчёта


Состав:
Robin McAuley: Lead vocals
Michael O'Donoghue: Guitar, vocals
Phil Lanzon: Keyboards, vocals
Ralph Hood: Bass, vocals
Andy Berne: Drums, percussion

TOCP-8086

_________________
Витасу до Даймонда как Алсу до Руссоса | При переразмещении - спрашивать разрешение!!


Top
 Profile  
 
 
PostPosted: 24 Aug 2010 
Персональный статус
Joined: 14 May 2010
Posts: 236
Age: 38
Name: Денис
Спасибо. Не слушал такое раньше. Будем знакомиться.


Top
 Profile  
 
 
PostPosted: 24 Aug 2010 
ыыыы
User avatar
Joined: 17 May 2009
Posts: 952
Lоcаtion: Пушкино, МО
Age: 41
Name: Дмитрий
Весьма рекомендую. Предыдущее место работа вокалиста перед работой у М. Шенкера с 87 г.

_________________
Витасу до Даймонда как Алсу до Руссоса | При переразмещении - спрашивать разрешение!!


Top
 Profile  
 
 
PostPosted: 24 Aug 2010 
Персональный статус
Joined: 14 May 2010
Posts: 236
Age: 38
Name: Денис
Да, вокалиста-то я знаю. :)

Начал слушать, такая ностальгическая музыка из 80-х. Добрая.


Top
 Profile  
 
 
PostPosted: 24 Aug 2010 
metallpaparazzy
User avatar
Joined: 20 Dec 2009
Posts: 674
Lоcаtion: Днепропетровск
Age: 44
Name: Геннадий
Robin McAuley: Lead vocals -- это тот, который в MSG потом пел!? :shok: качаю полюбэ :true:
:thanx: :thanx: :thanx:


Top
 Profile E-mail  
 
 
PostPosted: 24 Aug 2010 
ыыыы
User avatar
Joined: 17 May 2009
Posts: 952
Lоcаtion: Пушкино, МО
Age: 41
Name: Дмитрий
metallroll
iezuit wrote:
Весьма рекомендую. Предыдущее место работа вокалиста перед работой у М. Шенкера с 87 г.

_________________
Витасу до Даймонда как Алсу до Руссоса | При переразмещении - спрашивать разрешение!!


Top
 Profile  
 
 
PostPosted: 25 Aug 2010 
Хиппей (support team)
User avatar
Joined: 30 Jul 2007
Posts: 115984
Lоcаtion: Киев (Kyiv, UA)
Age: 46
Name: Andrey
:thanx:
В своё время альбом не понравился. Мож сейчас попрёть :oops:

_________________


Top
 Profile E-mail  
 
 
PostPosted: 25 Aug 2010 
Персональный статус
Joined: 02 Apr 2010
Posts: 223
Name: Андрей
Благодарю, отличный альбомчик. :thanx:


Top
 Profile  
 
 
PostPosted: 25 Aug 2010 
А может смените мне статус?..
Joined: 03 Jul 2009
Posts: 891
Lоcаtion: Serbia
Name: Laki
Thank you !!!!! :thanx:


Top
 Profile E-mail  
 
Display posts from previous:  Sort by  
Post new topic Reply to topic  [ 9 posts ] 

All times are UTC + 3 hours


Who is online

Users browsing this forum: No registered users and 1 guest


You cannot post new topics in this forum
You cannot reply to topics in this forum
You cannot edit your posts in this forum
You cannot delete your posts in this forum
You cannot post attachments in this forum

Search for:
Яндекс.Метрика
Powered by phpBB © 2000, 2002, 2005, 2007 phpBB Group