\m/ 80's metal \m/

Информационно-аналитический форум "80 см пыли" (In Search We Trust) "У нас никто никуда не спешит"
Me For You - http://me-4u.com
It is currently 19 Aug 2019

All times are UTC + 3 hours

Spoiler
Chat - temporary registration for foreign users (please leave your application here)







Post new topic Reply to topic  [ 8 posts ] 
Author Message
 
PostPosted: 26 Jul 2010 
5cm
User avatar
Joined: 01 Mar 2009
Posts: 61
Name: Сергей
Image

Line-up:
Adrian Hahn - Vocals, Bass (Capricorn (Deu), Nemesis (Deu))
Andy Ergün - Guitar (Capricorn (Deu), Rawboned, Nemesis (Deu))
Lario Teklic - Guitar (R.I.P.)
Stefan Arnold - Drums (Grave Digger, Wallop, Capricorn (Deu), X-Mas Project)

Year: 1990
Style: Thrash Metal
Country: Germany
Label: No Remorse Records
Format: Flac+Cue+Log
Size: 167 Mb

Tracklist:
1. Reeling on the Edge 03:47
2. Incarnation Off 04:42
3. Truth in the Hands of Judas 03:45
4. Just Another Scar 04:18
5. Dawn for the Living 04:23
6. F.O.A.D. (Live) 02:37
=====================
Total playing time: 23:32

LOG
Exact Audio Copy V0.99 prebeta 5 from 4. May 2009

EAC extraction logfile from 25. July 2010, 19:09

Grinder / The 1st EP

Used drive : _NEC DVD_RW ND-4551A Adapter: 0 ID: 0

Read mode : Secure
Utilize accurate stream : Yes
Defeat audio cache : Yes
Make use of C2 pointers : No

Read offset correction : 48
Overread into Lead-In and Lead-Out : No
Fill up missing offset samples with silence : Yes
Delete leading and trailing silent blocks : No
Null samples used in CRC calculations : Yes
Used interface : Installed external ASPI interface

Used output format : User Defined Encoder
Selected bitrate : 768 kBit/s
Quality : High
Add ID3 tag : No
Command line compressor : C:\Program Files\Exact Audio Copy\FLAC\FLAC.EXE
Additional command line options : -8 -V -T "ARTIST=%a" -T "TITLE=%t" -T "ALBUM=%g" -T "DATE=%y" -T "TRACKNUMBER=%n" -T "GENRE=%m" -T "COMMENT=%e" %s -o %d


TOC of the extracted CD

Track | Start | Length | Start sector | End sector
---------------------------------------------------------
1 | 0:00.33 | 3:46.50 | 33 | 17032
2 | 3:47.08 | 4:42.25 | 17033 | 38207
3 | 8:29.33 | 3:45.00 | 38208 | 55082
4 | 12:14.33 | 4:18.02 | 55083 | 74434
5 | 16:32.35 | 4:22.60 | 74435 | 94144
6 | 20:55.20 | 2:37.38 | 94145 | 105957


Range status and errors

Selected range

Filename D:\FLACattack\Grinder - The 1st EP.wav

Peak level 100.0 %
Range quality 99.9 %
Copy CRC A2766CBD
Copy OK

No errors occurred


AccurateRip summary

Track 1 accurately ripped (confidence 3) [FC3AE131]
Track 2 accurately ripped (confidence 3) [23248C41]
Track 3 accurately ripped (confidence 3) [C69EB27D]
Track 4 accurately ripped (confidence 3) [763EEFC7]
Track 5 accurately ripped (confidence 3) [8927135C]
Track 6 accurately ripped (confidence 3) [35920147]

All tracks accurately ripped

End of status report

NAROD


Top
 Profile  
 
 
PostPosted: 26 Jul 2010 
Хиппей (support team)
User avatar
Joined: 30 Jul 2007
Posts: 114002
Lоcаtion: Киев (Kyiv, UA)
Age: 46
Name: Andrey
Спасибо :true:

mirror: iFolder l Narod l M-Cloud

_________________


Top
 Profile E-mail  
 
 
PostPosted: 26 Jul 2010 
Позитивный Южанин
User avatar
Joined: 07 May 2010
Posts: 1620
Lоcаtion: КРЫМ
Age: 44
Name: Алексей
Важные Бундесы были :thanx:

_________________
WATER'EM ALL!


Top
 Profile E-mail  
 
 
PostPosted: 27 Jul 2010 
Motörheadache
User avatar
Joined: 04 Feb 2010
Posts: 1294
Lоcаtion: Впереди- горы,позади-степи
Age: 46
Name: Александр
Кстати да....
Сергей,спасибо за миник !! :true: :thanx:

_________________
Eine Nation, Ein Land, Eine Schnaps!

Наш священный долг:защищать Родину,и соблюдать правила личной гигиены....!


Top
 Profile E-mail  
 
 
PostPosted: 07 Mar 2016 
Хиппей (support team)
User avatar
Joined: 30 Jul 2007
Posts: 114002
Lоcаtion: Киев (Kyiv, UA)
Age: 46
Name: Andrey
Замечательный миник - спидняковый хип-хоп в духе Атракса-91 (только не такой негроидный) + три старые вещи в живом исполнении :meloman:

7+/10

_________________


Top
 Profile E-mail  
 
 
PostPosted: 07 Mar 2016 
Хиппей (support team)
User avatar
Joined: 30 Jul 2007
Posts: 114002
Lоcаtion: Киев (Kyiv, UA)
Age: 46
Name: Andrey
Серьезное объявление: вдруг у кого есть сканы с этого диска, просьба засканировать и залить :thanx:

зы. Не знаю, Сергей рипал пиратку или германский первак, но скорее всего первый вариант.
Сканы вот он добавить то и позабыл...

_________________


Top
 Profile E-mail  
 
 
PostPosted: 07 Mar 2016 
Генеральный thrasher
User avatar
Joined: 03 Oct 2008
Posts: 3717
Lоcаtion: Ханты-Мансийский АО
Age: 44
Name: Сергей
Сканы - https://cloud.mail.ru/public/2D4Y/SMDcP9nba


Top
 Profile  
 
 
PostPosted: 07 Mar 2016 
Хиппей (support team)
User avatar
Joined: 30 Jul 2007
Posts: 114002
Lоcаtion: Киев (Kyiv, UA)
Age: 46
Name: Andrey
Уфтыфка :lob:
Серёг, danke schön :thanx:

Image Image

Image
Image

Image Image

_________________


Top
 Profile E-mail  
 
Display posts from previous:  Sort by  
Post new topic Reply to topic  [ 8 posts ] 

All times are UTC + 3 hours


Who is online

Users browsing this forum: No registered users and 3 guests


You cannot post new topics in this forum
You cannot reply to topics in this forum
You cannot edit your posts in this forum
You cannot delete your posts in this forum
You cannot post attachments in this forum

Search for:
Яндекс.Метрика
Powered by phpBB © 2000, 2002, 2005, 2007 phpBB Group