\m/ 80's metal \m/

Информационно-аналитический форум "80 см пыли" (In Search We Trust) "У нас никто никуда не спешит"
Me For You - http://me-4u.com
It is currently 14 Nov 2019

All times are UTC + 3 hours

Spoiler
Chat - temporary registration for foreign users (please leave your application here)







Post new topic Reply to topic  [ 10 posts ] 
Author Message
 
PostPosted: 04 Jul 2010 
ыыыы
User avatar
Joined: 17 May 2009
Posts: 952
Lоcаtion: Пушкино, МО
Age: 41
Name: Дмитрий
Image


Жанр: Hard Rock
Происхождение исполнителя: США
Год издания: 1986
Год издания данного носителя: 1987
Страна-производитель носителя: Япония
Аудио кодек: FLAC
Тип рипа: image+.cue
Битрейт аудио: lossless
Продолжительность: 44:16
Рип: Собственный
Лейбл: CAPITOL/EMI
Каталоговый номер: CP32-5566
Матрица: CP32-5566 1A1 TO (TOSHIBA)

Треклист:
1. She Shakes Me 03:28
2. What Do You Do 04:15
3. Face The Day 05:22
4. Gimme Some Lovin' (The Spencer Davis Group cover) 03:53
5. Shot In The Dark 04:54
6. Is Anybody There? 04:59
7. Run Away 04:19
8. Waiting For Love 04:22
9. Red House 08:46

"Куй"
REM GENRE "Hard Rock"
REM DATE 1986
REM DISCID 630A6009
REM COMMENT "ExactAudioCopy v0.99pb5"
PERFORMER "Great White"
TITLE "Shot In The Dark [CP32-5566]"
FILE "Great White - Shot In The Dark [CP32-5566].flac" WAVE
TRACK 01 AUDIO
TITLE "She Shakes Me"
PERFORMER "Great White"
INDEX 01 00:00:00
TRACK 02 AUDIO
TITLE "What Do You Do"
PERFORMER "Great White"
INDEX 01 03:27:42
TRACK 03 AUDIO
TITLE "Face The Day"
PERFORMER "Great White"
INDEX 00 07:40:05
INDEX 01 07:42:22
TRACK 04 AUDIO
TITLE "Gimme Some Lovin'"
PERFORMER "Great White"
INDEX 01 13:04:22
TRACK 05 AUDIO
TITLE "Shot In The Dark"
PERFORMER "Great White"
INDEX 00 16:55:35
INDEX 01 16:56:72
TRACK 06 AUDIO
TITLE "Is Anybody There"
PERFORMER "Great White"
INDEX 00 21:50:00
INDEX 01 21:51:05
TRACK 07 AUDIO
TITLE "Run Away"
PERFORMER "Great White"
INDEX 01 26:49:72
TRACK 08 AUDIO
TITLE "Waiting For Love"
PERFORMER "Great White"
INDEX 01 31:08:40
TRACK 09 AUDIO
TITLE "Red House"
PERFORMER "Great White"
INDEX 00 35:28:67
INDEX 01 35:30:17


"Лог"
Exact Audio Copy V0.99 prebeta 5 from 4. May 2009

Отчёт EAC об извлечении, выполненном 3. февраля 2010, 21:03

Great White / Shot In The Dark [CP32-5566]

Дисковод: ASUS DRW-2014S1 Adapter: 0 ID: 0

Режим чтения : Достоверность
Использование точного потока : Да
Отключение кэша аудио : Да
Использование указателей C2 : Нет

Коррекция смещения при чтении : 6
Способность читать области Lead-in и Lead-out : Нет
Заполнение пропущенных сэмплов тишиной : Да
Удаление блоков с тишиной в начале и конце : Нет
При вычислениях CRC использовались нулевые сэмплы : Да
Интерфейс : Установленный внешний ASPI-интерфейс

Выходной формат : Пользовательский кодировщик
Выбранный битрейт : 128 kBit/s
Качество : Высокий
Добавление ID3-тэга : Нет
Утилита сжатия : C:\Program Files\Exact Audio Copy\Flac\flac.exe
Дополнительные параметры : -6 -V -T "artist=%a" -T "title=%t" -T "album=%g" -T "date=%y" -T "tracknumber=%n" -T "genre=%m" -T "comment=EAC 0.99beta5 / FLAC 1.1.0 q6" %s


TOC извлечённого CD

Трек | Старт | Длительность | Начальный сектор | Конечный сектор
---------------------------------------------------------------------
1 | 0:00.00 | 3:27.42 | 0 | 15566
2 | 3:27.42 | 4:14.55 | 15567 | 34671
3 | 7:42.22 | 5:22.00 | 34672 | 58821
4 | 13:04.22 | 3:52.50 | 58822 | 76271
5 | 16:56.72 | 4:54.08 | 76272 | 98329
6 | 21:51.05 | 4:58.67 | 98330 | 120746
7 | 26:49.72 | 4:18.43 | 120747 | 140139
8 | 31:08.40 | 4:21.52 | 140140 | 159766
9 | 35:30.17 | 8:46.20 | 159767 | 199236


Характеристики диапазона извлечения и сообщения об ошибках

Выбранный диапазон

Имя файла Y:\Музыка\Great White\1986 Shot In The Dark\Great White - Shot In The Dark [CP32-5566].wav

Пиковый уровень 96.4 %
Качество диапазона 100.0 %
CRC копии 2EC77128
Копирование... OK

Ошибок не произошло


AccurateRip: сводка

Трек 1 нет в базе данных
Трек 2 нет в базе данных
Трек 3 нет в базе данных
Трек 4 нет в базе данных
Трек 5 нет в базе данных
Трек 6 нет в базе данных
Трек 7 нет в базе данных
Трек 8 нет в базе данных
Трек 9 нет в базе данных

Ни одного трека нет в базе AccurateRip

Конец отчёта


Состав:
Jack Russell: Lead vocals
Mark Kendall: Lead guitar
Lorne Black: Bass guitar
Audie Desbrow: Drums
Michael Lardie: Guitar, keyboards
Tyana Parr, Michael Lardie, Mark Kendall, Donald Ducksworth: Backing vocals

CP32-5566

_________________
Витасу до Даймонда как Алсу до Руссоса | При переразмещении - спрашивать разрешение!!


Top
 Profile  
 
 
PostPosted: 05 Jul 2010 
Персональный статус
User avatar
Joined: 02 Jul 2009
Posts: 312
Name: Александр
Большое спасибо !!!!!!! :thanx: :thanx: :thanx:


Top
 Profile E-mail  
 
 
PostPosted: 05 Jul 2010 
Пионэръ
User avatar
Joined: 02 Jul 2010
Posts: 45
Lоcаtion: Сочи
Age: 47
Name: Борис
СПАСИБО !!


Top
 Profile E-mail  
 
 
PostPosted: 05 Jul 2010 
ыыыы
User avatar
Joined: 17 May 2009
Posts: 952
Lоcаtion: Пушкино, МО
Age: 41
Name: Дмитрий
tool9
где-то я вас видел)))
На здоровье!
ЭЭх, в Сочи бы сейчас или в Дивноморское :cry:

_________________
Витасу до Даймонда как Алсу до Руссоса | При переразмещении - спрашивать разрешение!!


Top
 Profile  
 
 
PostPosted: 05 Jul 2010 
А может смените мне статус?..
User avatar
Joined: 24 Dec 2008
Posts: 648
Age: 45
Name: Дмитрий
Название группы знакомое, а ни разу не слушал. :thanx:


Top
 Profile  
 
 
PostPosted: 05 Jul 2010 
ыыыы
User avatar
Joined: 17 May 2009
Posts: 952
Lоcаtion: Пушкино, МО
Age: 41
Name: Дмитрий
Rager
рекомендую их первый альбум- доставит :true:

_________________
Витасу до Даймонда как Алсу до Руссоса | При переразмещении - спрашивать разрешение!!


Top
 Profile  
 
 
PostPosted: 05 Jul 2010 
Пионэръ
User avatar
Joined: 02 Jul 2010
Posts: 45
Lоcаtion: Сочи
Age: 47
Name: Борис
iezuit wrote:
Rager
рекомендую их первый альбум- доставит :true:



Да, шикарный альбом :true: :dance: :true:


Top
 Profile E-mail  
 
 
PostPosted: 06 Jul 2010 
А может смените мне статус?..
User avatar
Joined: 24 Dec 2008
Posts: 648
Age: 45
Name: Дмитрий
iezuit wrote:
Rager
рекомендую их первый альбум- доставит :true:


А есть :losik: - что-то его не видно нигде? В mp3 стараюсь не слушать после того, как ознакомившись с новыми группами и не впечатлившись их творчеством, приходил к совершенно другому выводу, послушав то же самое в лосслесс... :pardon:


Top
 Profile  
 
 
PostPosted: 06 Jul 2010 
ыыыы
User avatar
Joined: 17 May 2009
Posts: 952
Lоcаtion: Пушкино, МО
Age: 41
Name: Дмитрий
на японии не видел-не слышал, возможно не издавался. Америцу пока брать не хочу

_________________
Витасу до Даймонда как Алсу до Руссоса | При переразмещении - спрашивать разрешение!!


Top
 Profile  
 
 
PostPosted: 16 Jul 2010 
А может смените мне статус?..
User avatar
Joined: 24 Dec 2008
Posts: 648
Age: 45
Name: Дмитрий
iezuit wrote:
Rager
рекомендую их первый альбум- доставит :true:


Послушал - очень даже недурственно. :dance:


Top
 Profile  
 
Display posts from previous:  Sort by  
Post new topic Reply to topic  [ 10 posts ] 

All times are UTC + 3 hours


Who is online

Users browsing this forum: No registered users and 2 guests


You cannot post new topics in this forum
You cannot reply to topics in this forum
You cannot edit your posts in this forum
You cannot delete your posts in this forum
You cannot post attachments in this forum

Search for:
Яндекс.Метрика
Powered by phpBB © 2000, 2002, 2005, 2007 phpBB Group