\m/ 80's metal \m/

Информационно-аналитический форум "80 см пыли" (In Search We Trust) "У нас никто никуда не спешит"
Me For You - http://me-4u.com
It is currently 05 Dec 2019

All times are UTC + 3 hours

Spoiler
Chat - temporary registration for foreign users (please leave your application here)







Post new topic Reply to topic  [ 23 posts ]  Go to page 1, 2  Next
Author Message
 
PostPosted: 20 Apr 2010 
ыыыы
User avatar
Joined: 17 May 2009
Posts: 952
Lоcаtion: Пушкино, МО
Age: 41
Name: Дмитрий
Image


Жанр: Power Metal/Speed Metal
Происхождение исполнителя: Германия
Год издания: 1990
Год издания данного носителя: 1990
Страна-производитель носителя: Япония
Аудио кодек: FLAC
Тип рипа: image+.cue
Битрейт аудио: lossless
Продолжительность: 24:09
Рип: Собственный
Лейбл: NOISE/VICTOR
Каталоговый номер: VICP-15004
Матрица: VICP-15004-1-A1F 11 V (JVC)

Треклист:
1. Who Do You Think You Are? 05:08
2. Heaven Can Wait (band version) 04:29
3. Heading For Tomorrow (sing along version) 14:31

"Куй"
REM GENRE Metal
REM DATE 1990
REM DISCID 1B05A903
REM COMMENT "ExactAudioCopy v0.99pb5"
PERFORMER "GAMMA RAY"
TITLE "Who Do You Think You Are? (EP) [VICP-15004]"
FILE "GAMMA RAY - Who Do You Think You Are (EP) [VICP-15004].flac" WAVE
TRACK 01 AUDIO
TITLE "Who Do You Think You Are?"
PERFORMER "GAMMA RAY"
INDEX 00 00:00:00
INDEX 01 00:00:37
TRACK 02 AUDIO
TITLE "Heaven Can Wait (Band Version)"
PERFORMER "GAMMA RAY"
INDEX 00 05:06:71
INDEX 01 05:08:57
TRACK 03 AUDIO
TITLE "Heading For Tomorrow (Sing Along Version)"
PERFORMER "GAMMA RAY"
INDEX 00 09:35:73
INDEX 01 09:37:57


"Лог"
Exact Audio Copy V0.99 prebeta 5 from 4. May 2009

EAC extraction logfile from 20. April 2010, 12:06

GAMMA RAY / Who Do You Think You Are? (EP) [VICP-15004]

Used drive : Optiarc DVD RW AD-7200A Adapter: 0 ID: 0

Read mode : Secure
Utilize accurate stream : Yes
Defeat audio cache : Yes
Make use of C2 pointers : No

Read offset correction : 48
Overread into Lead-In and Lead-Out : No
Fill up missing offset samples with silence : Yes
Delete leading and trailing silent blocks : No
Null samples used in CRC calculations : Yes
Used interface : Native Win32 interface for Win NT & 2000

Used output format : User Defined Encoder
Selected bitrate : 128 kBit/s
Quality : High
Add ID3 tag : No
Command line compressor : C:\Program Files\Exact Audio Copy\Flac\flac.exe
Additional command line options : -8 -V -T "artist=%a" -T "title=%t" -T "album=%g" -T "date=%y" -T "tracknumber=%n" -T "genre=%m" -T "comment=EAC 0.9beta4 / FLAC 1.1.0 q6" %s


TOC of the extracted CD

Track | Start | Length | Start sector | End sector
---------------------------------------------------------
1 | 0:00.37 | 5:08.20 | 37 | 23156
2 | 5:08.57 | 4:29.00 | 23157 | 43331
3 | 9:37.57 | 14:31.18 | 43332 | 108674


Range status and errors

Selected range

Filename Y:\Музыка\Gamma Ray\1990 Who Do You Think You Are (EP)\GAMMA RAY - Who Do You Think You Are (EP) [VICP-15004].wav

Peak level 100.0 %
Range quality 100.0 %
Copy CRC CE873F74
Copy OK

No errors occurred

End of status report


Состав:
Kai Hansen: Guitars, vocals
Ralf Scheepers: Lead vocals
Dirk Schlächter: Guitars
Uwe Wessel: Bass guitar
Uli Kusch: Drums

Народ

_________________
Витасу до Даймонда как Алсу до Руссоса | При переразмещении - спрашивать разрешение!!


Top
 Profile  
 
 
PostPosted: 20 Apr 2010 
А может смените мне статус?..
User avatar
Joined: 24 Dec 2008
Posts: 650
Age: 45
Name: Дмитрий
Спасибо, послушаю, что за "sing along version". :meloman:


Top
 Profile  
 
 
PostPosted: 20 Apr 2010 
HAMMER
User avatar
Joined: 16 May 2009
Posts: 5488
Lоcаtion: Тверь
Age: 47
Name: Александр
Thanks.


Top
 Profile E-mail  
 
 
PostPosted: 22 Apr 2010 
Power Metal Maniac
User avatar
Joined: 09 Aug 2008
Posts: 6985
Lоcаtion: Москва
Age: 41
Name: Егор
Rager
это версия, где большая часть вокала убрана, типа Караоке. Она же затем и вошла на Караоке альбом 1997 года.

_________________
Long Live Metal!


Top
 Profile  
 
 
PostPosted: 11 Feb 2012 
5-speed satisfactor
User avatar
Joined: 16 Feb 2009
Posts: 3808
Lоcаtion: New York, USA
Age: 41
Name: Leonid
Перезалейте.

_________________
Death rules! Metal to all who oppose!


Top
 Profile  
 
 
PostPosted: 12 Feb 2012 
Работнечег
User avatar
Joined: 28 Aug 2007
Posts: 6086
Lоcаtion: г. Москва
Age: 30
Name: Дима
Я, к сожалению, не качал :(


Top
 Profile E-mail  
 
 
PostPosted: 14 Feb 2012 
5-speed satisfactor
User avatar
Joined: 16 Feb 2009
Posts: 3808
Lоcаtion: New York, USA
Age: 41
Name: Leonid
Ну хто нибудь качал? Хочу Геммо Рой с Шуперсом собрать. Весь.

_________________
Death rules! Metal to all who oppose!


Top
 Profile  
 
 
PostPosted: 14 Feb 2012 
А может смените мне статус?..
User avatar
Joined: 24 Dec 2008
Posts: 650
Age: 45
Name: Дмитрий
metaleonid wrote:
Ну хто нибудь качал? Хочу Геммо Рой с Шуперсом собрать. Весь.


У меня вроде есть. Залью. :losik:


Top
 Profile  
 
 
PostPosted: 14 Feb 2012 
Персональный статус
Joined: 10 Mar 2009
Posts: 461
Lоcаtion: KYIV
Age: 41
Name: ROMAN
если шо, то у меня тоже есть сей диск рипнутый и отсканеный :losik:

_________________
HELLo!


Top
 Profile  
 
 
PostPosted: 14 Feb 2012 
А может смените мне статус?..
User avatar
Joined: 08 Nov 2007
Posts: 634
Lоcаtion: Crimea, UA
Age: 33
Name: Анатолий
А ммтшная версия не пойдет?
http://rutracker.org/forum/viewtopic.php?t=2725678


Top
 Profile  
 
 
PostPosted: 14 Feb 2012 
Хиппей (support team)
User avatar
Joined: 30 Jul 2007
Posts: 115983
Lоcаtion: Киев (Kyiv, UA)
Age: 46
Name: Andrey
Кстати, там же должен быть и этот рип от Димки.

Только мне лень искать, качать и переливать. Группа то ну очень уж популярная :bore:

_________________


Top
 Profile E-mail  
 
 
PostPosted: 14 Feb 2012 
А может смените мне статус?..
User avatar
Joined: 08 Nov 2007
Posts: 634
Lоcаtion: Crimea, UA
Age: 33
Name: Анатолий
Scatterbrain wrote:
Кстати, там же должен быть и этот рип от Димки.

Только мне лень искать, качать и переливать. Группа то ну очень уж популярная :bore:


Его рип я не нашёл там. Наверное, сдохла раздача.


Top
 Profile  
 
 
PostPosted: 14 Feb 2012 
А может смените мне статус?..
User avatar
Joined: 24 Dec 2008
Posts: 650
Age: 45
Name: Дмитрий
metaleonid wrote:
Ну хто нибудь качал? Хочу Геммо Рой с Шуперсом собрать. Весь.


Лови:
http://www.mediafire.com/?gvvcbfacbuvws89

Image

log
Exact Audio Copy V0.99 prebeta 5 from 4. May 2009

EAC extraction logfile from 20. April 2010, 12:06

GAMMA RAY / Who Do You Think You Are? (EP) [VICP-15004]

Used drive : Optiarc DVD RW AD-7200A Adapter: 0 ID: 0

Read mode : Secure
Utilize accurate stream : Yes
Defeat audio cache : Yes
Make use of C2 pointers : No

Read offset correction : 48
Overread into Lead-In and Lead-Out : No
Fill up missing offset samples with silence : Yes
Delete leading and trailing silent blocks : No
Null samples used in CRC calculations : Yes
Used interface : Native Win32 interface for Win NT & 2000

Used output format : User Defined Encoder
Selected bitrate : 128 kBit/s
Quality : High
Add ID3 tag : No
Command line compressor : C:\Program Files\Exact Audio Copy\Flac\flac.exe
Additional command line options : -8 -V -T "artist=%a" -T "title=%t" -T "album=%g" -T "date=%y" -T "tracknumber=%n" -T "genre=%m" -T "comment=EAC 0.9beta4 / FLAC 1.1.0 q6" %s


TOC of the extracted CD

Track | Start | Length | Start sector | End sector
---------------------------------------------------------
1 | 0:00.37 | 5:08.20 | 37 | 23156
2 | 5:08.57 | 4:29.00 | 23157 | 43331
3 | 9:37.57 | 14:31.18 | 43332 | 108674


Range status and errors

Selected range

Filename Y:\Музыка\Gamma Ray\1990 Who Do You Think You Are (EP)\GAMMA RAY - Who Do You Think You Are (EP) [VICP-15004].wav

Peak level 100.0 %
Range quality 100.0 %
Copy CRC CE873F74
Copy OK

No errors occurred

End of status report


cue
REM GENRE Metal
REM DATE 1990
REM DISCID 1B05A903
REM COMMENT "ExactAudioCopy v0.99pb5"
PERFORMER "GAMMA RAY"
TITLE "Who Do You Think You Are? (EP) [VICP-15004]"
FILE "GAMMA RAY - Who Do You Think You Are (EP) [VICP-15004].flac" WAVE
TRACK 01 AUDIO
TITLE "Who Do You Think You Are?"
PERFORMER "GAMMA RAY"
INDEX 00 00:00:00
INDEX 01 00:00:37
TRACK 02 AUDIO
TITLE "Heaven Can Wait (Band Version)"
PERFORMER "GAMMA RAY"
INDEX 00 05:06:71
INDEX 01 05:08:57
TRACK 03 AUDIO
TITLE "Heading For Tomorrow (Sing Along Version)"
PERFORMER "GAMMA RAY"
INDEX 00 09:35:73
INDEX 01 09:37:57


spectrum
Image


Top
 Profile  
 
 
PostPosted: 14 Feb 2012 
Хиппей (support team)
User avatar
Joined: 30 Jul 2007
Posts: 115983
Lоcаtion: Киев (Kyiv, UA)
Age: 46
Name: Andrey
:thanx:

mirror: Speedy l Narod

_________________


Top
 Profile E-mail  
 
 
PostPosted: 15 Feb 2012 
5-speed satisfactor
User avatar
Joined: 16 Feb 2009
Posts: 3808
Lоcаtion: New York, USA
Age: 41
Name: Leonid
Качнул. Посотрю что там. :thanx:

_________________
Death rules! Metal to all who oppose!


Top
 Profile  
 
 
PostPosted: 15 Feb 2012 
5-speed satisfactor
User avatar
Joined: 16 Feb 2009
Posts: 3808
Lоcаtion: New York, USA
Age: 41
Name: Leonid
Rager wrote:
metaleonid wrote:
Ну хто нибудь качал? Хочу Геммо Рой с Шуперсом собрать. Весь.


Лови:
http://www.mediafire.com/?gvvcbfacbuvws89


И Вам спасибо.

_________________
Death rules! Metal to all who oppose!


Top
 Profile  
 
 
PostPosted: 15 Feb 2012 
консэрваторъ
User avatar
Joined: 11 Aug 2007
Posts: 17497
Lоcаtion: Псков
Age: 45
Name: Сергей
Можно капельку офтопа? Не даёт покоя вопрос: почему ушёл (ушли) Ralf Scheepers? Вокал Киске с 95-ого не особо приемлется мною... Егор...

_________________
THRASH 'EM ALL


Top
 Profile E-mail  
 
 
PostPosted: 15 Feb 2012 
Прокъмитолист
User avatar
Joined: 12 Aug 2007
Posts: 6649
Lоcаtion: Санктъ-Петербуркъ
Age: 52
Name: Олекъ
а можно поинтересоваться при чем тут Киске? :oops:

_________________
прокъметол - это музыко, от которово есть прок (ы)


Top
 Profile  
 
 
PostPosted: 15 Feb 2012 
консэрваторъ
User avatar
Joined: 11 Aug 2007
Posts: 17497
Lоcаtion: Псков
Age: 45
Name: Сергей
Тьху... 6 утра было... конечно Хансен :dash:

_________________
THRASH 'EM ALL


Top
 Profile E-mail  
 
 
PostPosted: 16 Feb 2012 
5-speed satisfactor
User avatar
Joined: 16 Feb 2009
Posts: 3808
Lоcаtion: New York, USA
Age: 41
Name: Leonid
Я слышал они в разных местах жили и Ральфу ездить далеко было. Но инфа не точная.

_________________
Death rules! Metal to all who oppose!


Top
 Profile  
 
Display posts from previous:  Sort by  
Post new topic Reply to topic  [ 23 posts ]  Go to page 1, 2  Next

All times are UTC + 3 hours


Who is online

Users browsing this forum: No registered users and 1 guest


You cannot post new topics in this forum
You cannot reply to topics in this forum
You cannot edit your posts in this forum
You cannot delete your posts in this forum
You cannot post attachments in this forum

Search for:
Яндекс.Метрика
Powered by phpBB © 2000, 2002, 2005, 2007 phpBB Group