\m/ 80's metal \m/

Информационно-аналитический форум "80 см пыли" (In Search We Trust) "У нас никто никуда не спешит"
Me For You - http://me-4u.com
It is currently 19 Nov 2019

All times are UTC + 3 hours

Spoiler
Chat - temporary registration for foreign users (please leave your application here)







Post new topic Reply to topic  [ 5 posts ] 
Author Message
 
PostPosted: 04 Apr 2010 
ыыыы
User avatar
Joined: 17 May 2009
Posts: 952
Lоcаtion: Пушкино, МО
Age: 41
Name: Дмитрий
Image


Жанр: Heavy Metal
Происхождение исполнителя: США
Год издания: 1987
Год издания данного носителя: 1987
Страна-производитель носителя: Япония
Аудио кодек: FLAC
Тип рипа: image+.cue
Битрейт аудио: lossless
Продолжительность: 53:50
Рип: Собственный
Лейбл: GEFFEN/WARNER-PIONEER
Каталоговый номер: 32XD-821
Матрица: 32XD-821 P02 (DENON)

Треклист:
1. Welcome to the Jungle 04:34
2. It's So Easy 03:23
3. Nightrain 04:28
4. Out ta Get Me 04:24
5. Mr. Brownstone 03:49
6. Paradise City 06:46
7. My Michelle 03:40
8. Think About You 03:52
9. Sweet Child o' Mine 05:56
10. You’re Crazy 03:17
11. Anything Goes 03:26
12. Rocket Queen 06:14

"Куй"
REM GENRE "Hard Rock"
REM DATE 1987
REM DISCID AE0C9E0C
REM COMMENT "ExactAudioCopy v0.99pb5"
PERFORMER "Guns N' Roses"
TITLE "Appetite For Destruction [32XD-821]"
FILE "Guns N' Roses - Appetite For Destruction [32XD-821].flac" WAVE
TRACK 01 AUDIO
TITLE "Welcome To The Jungle"
PERFORMER "Guns N' Roses"
INDEX 01 00:00:00
TRACK 02 AUDIO
TITLE "It's So Easy"
PERFORMER "Guns N' Roses"
INDEX 00 04:31:60
INDEX 01 04:34:07
TRACK 03 AUDIO
TITLE "Nightrain"
PERFORMER "Guns N' Roses"
INDEX 00 07:55:70
INDEX 01 07:57:00
TRACK 04 AUDIO
TITLE "Out Ta Get Me"
PERFORMER "Guns N' Roses"
INDEX 00 12:23:40
INDEX 01 12:25:37
TRACK 05 AUDIO
TITLE "Mr. Brownstone"
PERFORMER "Guns N' Roses"
INDEX 00 16:45:62
INDEX 01 16:49:27
TRACK 06 AUDIO
TITLE "Paradise City"
PERFORMER "Guns N' Roses"
INDEX 00 20:35:47
INDEX 01 20:38:20
TRACK 07 AUDIO
TITLE "My Michelle"
PERFORMER "Guns N' Roses"
INDEX 00 27:24:25
INDEX 01 27:24:42
TRACK 08 AUDIO
TITLE "Think about You"
PERFORMER "Guns N' Roses"
INDEX 00 31:03:55
INDEX 01 31:04:37
TRACK 09 AUDIO
TITLE "Sweet Child O' Mine"
PERFORMER "Guns N' Roses"
INDEX 00 34:54:70
INDEX 01 34:56:10
TRACK 10 AUDIO
TITLE "You're Crazy"
PERFORMER "Guns N' Roses"
INDEX 00 40:51:10
INDEX 01 40:52:40
TRACK 11 AUDIO
TITLE "Anything Goes"
PERFORMER "Guns N' Roses"
INDEX 00 44:08:50
INDEX 01 44:09:55
TRACK 12 AUDIO
TITLE "Rocket Queen"
PERFORMER "Guns N' Roses"
INDEX 00 47:35:22
INDEX 01 47:36:07


"Лог"
Exact Audio Copy V0.99 prebeta 5 from 4. May 2009

EAC extraction logfile from 4. April 2010, 18:21

Guns N' Roses / Appetite For Destruction [32XD-821]

Used drive : Optiarc DVD RW AD-7200A Adapter: 0 ID: 0

Read mode : Secure
Utilize accurate stream : Yes
Defeat audio cache : Yes
Make use of C2 pointers : No

Read offset correction : 48
Overread into Lead-In and Lead-Out : No
Fill up missing offset samples with silence : Yes
Delete leading and trailing silent blocks : No
Null samples used in CRC calculations : Yes
Used interface : Native Win32 interface for Win NT & 2000

Used output format : User Defined Encoder
Selected bitrate : 128 kBit/s
Quality : High
Add ID3 tag : No
Command line compressor : C:\Program Files\Exact Audio Copy\Flac\flac.exe
Additional command line options : -8 -V -T "artist=%a" -T "title=%t" -T "album=%g" -T "date=%y" -T "tracknumber=%n" -T "genre=%m" -T "comment=EAC 0.9beta4 / FLAC 1.1.0 q6" %s


TOC of the extracted CD

Track | Start | Length | Start sector | End sector
---------------------------------------------------------
1 | 0:00.00 | 4:34.07 | 0 | 20556
2 | 4:34.07 | 3:22.68 | 20557 | 35774
3 | 7:57.00 | 4:28.37 | 35775 | 55911
4 | 12:25.37 | 4:23.65 | 55912 | 75701
5 | 16:49.27 | 3:48.68 | 75702 | 92869
6 | 20:38.20 | 6:46.22 | 92870 | 123341
7 | 27:24.42 | 3:39.70 | 123342 | 139836
8 | 31:04.37 | 3:51.48 | 139837 | 157209
9 | 34:56.10 | 5:56.30 | 157210 | 183939
10 | 40:52.40 | 3:17.15 | 183940 | 198729
11 | 44:09.55 | 3:26.27 | 198730 | 214206
12 | 47:36.07 | 6:14.30 | 214207 | 242286


Range status and errors

Selected range

Filename Y:\Музыка\Guns N' Roses\1987 Appetite For Destruction\Guns N' Roses - Appetite For Destruction [32XD-821].wav

Peak level 100.0 %
Range quality 100.0 %
Copy CRC CFAD159D
Copy OK

No errors occurred

End of status report


Состав:
Axl Rose: Vocal
Slash: Guitars
Izzy Stradlin: Guitars
Duff McKagan: Bass
Steven Adler: Drums

Megaupload

_________________
Витасу до Даймонда как Алсу до Руссоса | При переразмещении - спрашивать разрешение!!


Top
 Profile  
 
 
PostPosted: 04 Apr 2010 
Old Time Rock`n`Roll
User avatar
Joined: 23 Jun 2008
Posts: 3494
Lоcаtion: г.Ульяновск
Age: 41
Name: Константин
Спасибо, пожалуй возьму :thanx:
А некоторые говорят что Китайскяч Демократия на порядок лучше 1987 и обоих 1991 гг. Господи и как у людей такие мысли возникают?


Top
 Profile  
 
 
PostPosted: 04 Apr 2010 
Хиппей (support team)
User avatar
Joined: 30 Jul 2007
Posts: 115589
Lоcаtion: Киев (Kyiv, UA)
Age: 46
Name: Andrey
oldrocker wrote:
и как у людей такие мысли возникают?

Это всё от склероза. По себе сужу. Хотя я еще Демакратию не слушал :pardon:

_________________


Top
 Profile E-mail  
 
 
PostPosted: 04 Apr 2010 
metallpaparazzy
User avatar
Joined: 20 Dec 2009
Posts: 674
Lоcаtion: Днепропетровск
Age: 44
Name: Геннадий
как по мне, енто единственный путний сд "розовых пистолей"...
если-бы с 4го 91 выкинуть лишнее, был бы ешо один :nunu:
а "дерьмократия"... :vic: и в подметки не годиццо!


Top
 Profile E-mail  
 
 
PostPosted: 30 Apr 2010 
Пионэръ
Joined: 08 Mar 2010
Posts: 36
Lоcаtion: Россия
Age: 39
Name: Иван
По поводу 91 двойника я раньше тоже считал лишнее выкинуть, сейчас слушаю их только целиком, к "демократии" пока не привык
87 хоть и считается лучшим но слушаю его редко и то выборочно
А за японца спасибо :thanx:


Top
 Profile E-mail  
 
Display posts from previous:  Sort by  
Post new topic Reply to topic  [ 5 posts ] 

All times are UTC + 3 hours


Who is online

Users browsing this forum: No registered users and 2 guests


You cannot post new topics in this forum
You cannot reply to topics in this forum
You cannot edit your posts in this forum
You cannot delete your posts in this forum
You cannot post attachments in this forum

Search for:
Яндекс.Метрика
cron
Powered by phpBB © 2000, 2002, 2005, 2007 phpBB Group