\m/ 80's metal \m/

Информационно-аналитический форум "80 см пыли" (In Search We Trust) "У нас никто никуда не спешит"
Me For You - http://me-4u.com
It is currently 05 Dec 2019

All times are UTC + 3 hours

Spoiler
Chat - temporary registration for foreign users (please leave your application here)







Post new topic Reply to topic  [ 12 posts ] 
Author Message
 
PostPosted: 23 Dec 2009 
Я набрал 1000 сообщений!
User avatar
Joined: 25 Dec 2008
Posts: 1545
Age: 44
Name: Павел
Grinder - Dawn for the Living
Country:Germany
Genre:Speed/Thrash Metal
Year:1988
Format:flac+cue+log+covers
Size:314 Mb
Image
Tracklist:
1.Obsession
2.Dawn for the Living
3.Sinners Exile
4.Magician
5.Frenzied Hatred
6.Dying Flesh
7.Delirium
8.Traitor
9.F.O.A.D.
10.Traitor (Live-CD bonus track)

log
Отчёт EAC об извлечении, выполненном 2. января 2009, 11:32 для диска:
Grinder / Dawn For The Living

Дисковод: HL-DT-STDVDRAM GSA-H42N Adapter: 1 ID: 0
Режим чтения: Достоверный (C2: нет, Точный поток: да, Отключение кэша: да)
Коррекция смещения при чтении: 667
Способность читать области Lead-in и Lead-out : Нет

Выходной формат: Внутренние WAV-операции
44.100 Гц; 16 бит; стерео

Другие параметры:
Заполнение пропущенных сэмплов тишиной : Да
Удаление блоков с тишиной в начале и конце : Нет
Установленный внешний ASPI-интерфейс


Характеристики диапазона извлечения и сообщения об ошибках
Выбранный диапазон
Имя файла F:\EAC\Grinder - Dawn For The Living.wav

Пиковый уровень 100.0 %
Качество диапазона 100.0 %
CRC 66D983C4
Копирование... OK

Ошибок не произошло

Конец отчёта

cue
REM DISCID 7C09D00A
REM COMMENT "ExactAudioCopy v0.95b4"
PERFORMER "Grinder"
TITLE "Dawn For The Living"
FILE "Grinder - Dawn For The Living.flac" WAVE
TRACK 01 AUDIO
TITLE "Obsession"
PERFORMER "Grinder"
INDEX 01 00:00:00
TRACK 02 AUDIO
TITLE "Dawn FOr The Living"
PERFORMER "Grinder"
INDEX 01 03:59:17
TRACK 03 AUDIO
TITLE "Sinners Exile"
PERFORMER "Grinder"
INDEX 01 08:47:12
TRACK 04 AUDIO
TITLE "Magician"
PERFORMER "Grinder"
INDEX 01 13:23:40
TRACK 05 AUDIO
TITLE "Frenzied Hatred"
PERFORMER "Grinder"
INDEX 01 17:29:25
TRACK 06 AUDIO
TITLE "Dying Flesh"
PERFORMER "Grinder"
INDEX 01 22:36:15
TRACK 07 AUDIO
TITLE "Delirium"
PERFORMER "Grinder"
INDEX 01 26:30:65
TRACK 08 AUDIO
TITLE "Traitor"
PERFORMER "Grinder"
INDEX 01 30:46:47
TRACK 09 AUDIO
TITLE "F.O.A.D"
PERFORMER "Grinder"
INDEX 01 35:06:30
TRACK 10 AUDIO
TITLE "Traitor (live)"
PERFORMER "Grinder"
INDEX 01 37:23:52


Откуда стянуто-уже не помню.Наверняка с нонэйма.

Grinder-Dawn For The Living.rar


Top
 Profile  
 
 
PostPosted: 23 Dec 2009 
5-speed satisfactor
User avatar
Joined: 16 Feb 2009
Posts: 3808
Lоcаtion: New York, USA
Age: 41
Name: Leonid
:thanx:

_________________
Death rules! Metal to all who oppose!


Top
 Profile  
 
 
PostPosted: 23 Dec 2009 
5-speed satisfactor
User avatar
Joined: 16 Feb 2009
Posts: 3808
Lоcаtion: New York, USA
Age: 41
Name: Leonid
Во блин. Мне этот диск прожгли 10 лет назад. Никакого ЕАКа тогда, по-моему, не было. Ну косяк был, поэтому я и попросил точную версию. Так вот я токо что сравнил мой диск с твоей версией. Совпадают они полностью за исключением того, что у меня смещение на 68 семплов вправо (68 repeated samples). Нормально. Еще раз спасибо. Раз такое дело, то остальные диске от этого обмена будут впредь считаться точными.

_________________
Death rules! Metal to all who oppose!


Top
 Profile  
 
 
PostPosted: 24 Dec 2009 
.
User avatar
Joined: 25 Aug 2007
Posts: 568
Lоcаtion: Москва
Age: 107
Name: Kostolom
если что - у нас первые два Грайндера отпиратили недавно


Top
 Profile  
 
 
PostPosted: 25 Dec 2009 
5-speed satisfactor
User avatar
Joined: 16 Feb 2009
Posts: 3808
Lоcаtion: New York, USA
Age: 41
Name: Leonid
Нет, не надо. У меня все родные, кроме вот этого. Вот bonus tracks from Exodus совсем бы не помешали... :crazy: .

_________________
Death rules! Metal to all who oppose!


Top
 Profile  
 
 
PostPosted: 25 Dec 2009 
udo
User avatar
Joined: 01 Mar 2008
Posts: 2343
Lоcаtion: Краснодар
Age: 48
Name: РОМАН
Kostolom wrote:
если что - у нас первые два Грайндера отпиратили недавн

это где ?


Top
 Profile E-mail  
 
 
PostPosted: 07 Jan 2010 
.
User avatar
Joined: 25 Aug 2007
Posts: 568
Lоcаtion: Москва
Age: 107
Name: Kostolom
в столице. :)


Top
 Profile  
 
 
PostPosted: 07 Nov 2010 
Персональный статус
Joined: 19 Jul 2010
Posts: 282
Lоcаtion: Москва
Name: Вадим
odu wrote:
Kostolom wrote:
если что - у нас первые два Грайндера отпиратили недавн

это где ?

Ну пираты тоже ограниченным тиражом диски выпускают - учитывая нынешнюю стоимость оригиналов, пиратки, скорее всего, менее, чем за месяц рапродались. :-)) Во всяком случае, первые два альбома.


Top
 Profile E-mail  
 
 
PostPosted: 07 Nov 2010 
metallpaparazzy
User avatar
Joined: 20 Dec 2009
Posts: 674
Lоcаtion: Днепропетровск
Age: 44
Name: Геннадий
Закончился срок хранения файла. Файл удален с сервиса. :dash: :dash:
может, кто перезакинет? :oops: :thanx:


Top
 Profile E-mail  
 
 
PostPosted: 23 Jan 2011 
хард н хэвщик (support team)
User avatar
Joined: 02 Jun 2008
Posts: 16881
Lоcаtion: Н.Новгород
Age: 32
Name: Артем
metallroll wrote:
может, кто перезакинет? :oops: :thanx:

Ген, на торрентах смотрел ? :oops:


Top
 Profile  
 
 
PostPosted: 23 Jan 2011 
Я набрал 1000 сообщений!
User avatar
Joined: 25 Dec 2008
Posts: 1545
Age: 44
Name: Павел
Если больше нигде не найдется,то я перезалью.


Top
 Profile  
 
 
PostPosted: 12 Feb 2012 
.
Joined: 01 Mar 2009
Posts: 162
Age: 37
Name: .
http://www.headbanger.ru/interviews/273 - интервью с гитаристом Энди Эргюном. Не знал, куда приткнуть, поэтому решил разместить здесь


Top
 Profile  
 
Display posts from previous:  Sort by  
Post new topic Reply to topic  [ 12 posts ] 

All times are UTC + 3 hours


Who is online

Users browsing this forum: No registered users and 1 guest


You cannot post new topics in this forum
You cannot reply to topics in this forum
You cannot edit your posts in this forum
You cannot delete your posts in this forum
You cannot post attachments in this forum

Search for:
Яндекс.Метрика
Powered by phpBB © 2000, 2002, 2005, 2007 phpBB Group