\m/ 80's metal \m/

Информационно-аналитический форум "80 см пыли" (In Search We Trust) "У нас никто никуда не спешит"
Me For You - http://me-4u.com
It is currently 24 Aug 2019

All times are UTC + 3 hours

Spoiler
Chat - temporary registration for foreign users (please leave your application here)







Post new topic Reply to topic  [ 3 posts ] 
Author Message
 
PostPosted: 28 Nov 2009 
Хиппей (support team)
User avatar
Joined: 30 Jul 2007
Posts: 114073
Lоcаtion: Киев (Kyiv, UA)
Age: 46
Name: Andrey
Ganafoul - 1978 - Saturday Night (reissued 1994) [flac]

    Image

Genre: Hard Rock
Location: France
Format: flac+cue+log+covers
Size: 214 mb


Приятный французский хардешник на... английском языке :meloman:

Mega
Narod

Источник:
Скачал осликом образ диска (*.nrg), затем закатал на болванку и рипнул (проверяйте, нормально второй блин вышел, или криво).
Спасибо за помощь Андрею (Terrion) и мануалу от Олега Спиралыча :thanx:

log
Отчёт EAC об извлечении, выполненном 27. ноября 2009, 19:51 для диска:
Ganafoul / Saturday Night

Дисковод: LITE-ON COMBO SOHC-5235K Adapter: 1 ID: 1
Режим чтения: Достоверный (C2: нет, Точный поток: да, Отключение кэша: да)
Коррекция смещения при чтении: 6
Способность читать области Lead-in и Lead-out : Нет

Выходной формат: Внутренние WAV-операции
44.100 Гц; 16 бит; стерео

Другие параметры:
Заполнение пропущенных сэмплов тишиной : Да
Удаление блоков с тишиной в начале и конце : Нет
Установленный внешний ASPI-интерфейс


Характеристики диапазона извлечения и сообщения об ошибках
Выбранный диапазон
Имя файла D:\Ganafoul - Saturday Night.wav

Пиковый уровень 82.5 %
Качество диапазона 99.9 %
CRC A1C2AA7C
Копирование... OK

Ошибок не произошло

Конец отчёта


cue
REM GENRE "Hard Rock"
REM DATE 1978
REM DISCID 75082F09
REM COMMENT "ExactAudioCopy v0.95b4"
PERFORMER "Ganafoul"
TITLE "Saturday Night"
FILE "Ganafoul - Saturday Night.wav" WAVE
TRACK 01 AUDIO
TITLE "Let Me Burn"
PERFORMER "Ganafoul"
INDEX 01 00:00:00
TRACK 02 AUDIO
TITLE "Danger Zone"
PERFORMER "Ganafoul"
INDEX 01 04:49:68
TRACK 03 AUDIO
TITLE "Helvetia Song"
PERFORMER "Ganafoul"
INDEX 01 07:55:05
TRACK 04 AUDIO
TITLE "Free Tomorrow"
PERFORMER "Ganafoul"
INDEX 01 11:16:25
TRACK 05 AUDIO
TITLE "Saturday Night"
PERFORMER "Ganafoul"
INDEX 01 15:13:60
TRACK 06 AUDIO
TITLE "Dreamer"
PERFORMER "Ganafoul"
INDEX 01 18:22:03
TRACK 07 AUDIO
TITLE "Get Out Of Here"
PERFORMER "Ganafoul"
INDEX 01 22:04:10
TRACK 08 AUDIO
TITLE "Roll On"
PERFORMER "Ganafoul"
INDEX 01 26:03:33
TRACK 09 AUDIO
TITLE "Move On Faster"
PERFORMER "Ganafoul"
INDEX 01 30:30:68

_________________


Top
 Profile E-mail  
 
 
PostPosted: 28 Nov 2009 
Почётный металлург
User avatar
Joined: 15 Sep 2007
Posts: 4358
Lоcаtion: Хабаровск
Age: 59
Name: чуть выше
:thanx:

_________________
Коль будешь людей ты ослами честить,
тебе человеком меж них не прослыть!
(Саади, персидский поэт, 13в.)


Top
 Profile  
 
 
PostPosted: 28 Nov 2009 
Труъ
User avatar
Joined: 07 Apr 2009
Posts: 183
Lоcаtion: Беларусь, Минск
Age: 28
Name: Никита
:thanx:

_________________
"...AND THE REST IS ROCK 'N ROLL."


Top
 Profile  
 
Display posts from previous:  Sort by  
Post new topic Reply to topic  [ 3 posts ] 

All times are UTC + 3 hours


Who is online

Users browsing this forum: No registered users and 1 guest


You cannot post new topics in this forum
You cannot reply to topics in this forum
You cannot edit your posts in this forum
You cannot delete your posts in this forum
You cannot post attachments in this forum

Search for:
Яндекс.Метрика
Powered by phpBB © 2000, 2002, 2005, 2007 phpBB Group