\m/ 80's metal \m/

Информационно-аналитический форум "80 см пыли" (In Search We Trust) "У нас никто никуда не спешит"
Me For You - http://me-4u.com
It is currently 26 Aug 2019

All times are UTC + 3 hours

Spoiler
Chat - temporary registration for foreign users (please leave your application here)







Post new topic Reply to topic  [ 1 post ] 
Author Message
 
PostPosted: 14 Feb 2015 
Partisanen - nicht kapitulieren!!
User avatar
Joined: 25 Dec 2011
Posts: 7086
Lоcаtion: партизанские леса
Age: 46
Name: Владимир
Glory Bells [2004] [CD] Dressed In Black [1982]+Century Rendezvous [1984] [FLAC]

Metal Archives
Image

лога нет, утянул с бацбаца....

Release Date: 1982, 1984 (2004)
Location: Sweden
Genre: Heavy Metal
Quality: FLAC (image+.cue + all scans/300dpi)

Tracks 1-10 taken from 1982 - Dressed in Black
Tracks 11-19 taken from 1984 - Century Rendezvous

Tracklist
01. Dressed in black
02. Guest working man
03. I'm the captain
04. Sir Lionheart
05. Firestone
06. Flying Dutchman
07. City in my soul
08. This is freedom
09. Old viking man
10. Military toys
11. Flight back home
12. War drummer
13. Big thunder
14. My life
15. After twelve
16. Indian rainsong
17. Sweet Irene
18. Five foxes
19. In the attic

CUE Tools | +
Code:
[CUETools log; Date: 14.02.2015 19:05:21; Version: 2.1.4]
[CTDB TOCID: FnmFfJnCIH6mPpniZF0kry4w_Bo-] disk not present in database.
[AccurateRip ID: 002f6299-02a60802-18119413] found.
Track   [  CRC   |   V2   ] Status
01     [8e19ecce|85b2a9dd] (0+1/1) Accurately ripped
02     [27b3474b|3e53fe66] (0+1/1) Accurately ripped
03     [7f5ac199|eb39cc87] (0+1/1) Accurately ripped
04     [1ada4081|489e419d] (0+1/1) Accurately ripped
05     [4539fd90|dbbcb886] (0+1/1) Accurately ripped
06     [790f6c30|7d92f5ed] (0+1/1) Accurately ripped
07     [54e6713c|01b25fee] (0+1/1) Accurately ripped
08     [7f6c7f5b|542bec9e] (0+1/1) Accurately ripped
09     [492ae9d8|92dfe2bc] (0+1/1) Accurately ripped
10     [5413e8e8|ce4b715d] (0+1/1) Accurately ripped
11     [99f41e2a|d89392bd] (0+1/1) Accurately ripped
12     [72db6946|9db1e646] (0+1/1) Accurately ripped
13     [84aa951e|d55c5e52] (0+1/1) Accurately ripped
14     [62f24207|3ee464bb] (0+1/1) Accurately ripped
15     [f1e67e1b|1ab175bc] (0+1/1) Accurately ripped
16     [6b8767ba|d24f0c9f] (0+1/1) Accurately ripped
17     [45daaf66|21ea5732] (0+1/1) Accurately ripped
18     [cbf17513|126d7529] (0+1/1) Accurately ripped
19     [de20421a|dd583f56] (0+1/1) Accurately ripped

Track Peak [ CRC32  ] [W/O NULL]
--   93,0 [394CAF62] [A86A1236]           
01   90,5 [5929F7FC] [FFAB026C]           
02   90,6 [E4419FDC] [C49D5652]           
03   90,8 [152A29D4] [35C6EE30]           
04   90,2 [1AD1E577] [4E035ACF]           
05   89,5 [0B5AC67E] [316F9421]           
06   89,7 [D076AA4F] [E6B91DF7]           
07   89,3 [0E8DA202] [4387BFE4]           
08   89,4 [3F51A711] [BB8B6738]           
09   90,1 [121F9CA3] [33051196]           
10   89,3 [596CE685] [553E1A05]           
11   92,6 [D5B999A6] [7382648E]           
12   93,0 [E09A09BD] [AAC76860]           
13   91,5 [81BB55AB] [ACDFF9C1]           
14   90,0 [7810E836] [1010AD21]           
15   90,7 [D178D126] [617B6316]           
16   90,9 [6EC5989B] [82C59A58]           
17   92,0 [4733DF2A] [EA5516AC]           
18   91,6 [FBB2626A] [6D8A57C6]           
19   91,4 [299CABDA] [E6F89A0F]           

Image


_________________
One more beer and Heavy Metal and I'm just fine!
старовер, куле... слово "блин" - до сих пор через Ъ говорю


Top
 Profile E-mail  
 
Display posts from previous:  Sort by  
Post new topic Reply to topic  [ 1 post ] 

All times are UTC + 3 hours


Who is online

Users browsing this forum: No registered users and 1 guest


You cannot post new topics in this forum
You cannot reply to topics in this forum
You cannot edit your posts in this forum
You cannot delete your posts in this forum
You cannot post attachments in this forum

Search for:
Яндекс.Метрика
Powered by phpBB © 2000, 2002, 2005, 2007 phpBB Group