\m/ 80's metal \m/

Информационно-аналитический форум "80 см пыли" (In Search We Trust) "У нас никто никуда не спешит"
Me For You - http://me-4u.com
It is currently 26 Aug 2019

All times are UTC + 3 hours

Spoiler
Chat - temporary registration for foreign users (please leave your application here)







Post new topic Reply to topic  [ 5 posts ] 
Author Message
 
PostPosted: 18 Feb 2012 
Пионэръ
User avatar
Joined: 08 Nov 2010
Posts: 43
Lоcаtion: Россия
Name: Юрий
Image

Gunfire - "Thunder Of War" - 2004

Genre: Power Metal
Location: Italy
Format: flac+cue+log+covers
Size: 533 Mb

TrackList:
1. The King's Amulet 04:48
2. A Vision in Starlight 01:02
3. Deceiver 05:12
4. Gunfire 04:35
5. Thunder of War 03:40
6. The Fight for the Truth 05:07
7. I Shall Return 06:11
8. Sailing Through the Gates of the World 04:35
9. Livin' in Sin 05:56
10. Heavens of Mars 03:46
11. Twilight for the Gods 07:45
12. Hard Steel ('Gunfire' EP Version) 05:14
13. Thunder of War ('Gunfire' EP Version) 03:40
14. Gunfire ('Gunfire' EP Version) 03:54
15. Wings of Death ('Gunfire' EP Version) 05:19
01:10:44
Релиз MMT exploded
"Log"
Exact Audio Copy V0.99 prebeta 5 from 4. May 2009

EAC extraction logfile from 15. February 2012, 12:58

Gunfire / Thunder Of War

Used drive : Optiarc DVD RW AD-7240S Adapter: 0 ID: 0

Read mode : Secure
Utilize accurate stream : Yes
Defeat audio cache : Yes
Make use of C2 pointers : No

Read offset correction : 48
Overread into Lead-In and Lead-Out : No
Fill up missing offset samples with silence : Yes
Delete leading and trailing silent blocks : No
Null samples used in CRC calculations : No
Used interface : Native Win32 interface for Win NT & 2000

Used output format : User Defined Encoder
Selected bitrate : 32 kBit/s
Quality : High
Add ID3 tag : No
Command line compressor : C:\FLAC.EXE
Additional command line options : -6 -V %s


TOC of the extracted CD

Track | Start | Length | Start sector | End sector
---------------------------------------------------------
1 | 0:00.00 | 4:48.07 | 0 | 21606
2 | 4:48.07 | 1:02.31 | 21607 | 26287
3 | 5:50.38 | 5:12.64 | 26288 | 49751
4 | 11:03.27 | 4:35.27 | 49752 | 70403
5 | 15:38.54 | 3:40.38 | 70404 | 86941
6 | 19:19.17 | 5:07.58 | 86942 | 110024
7 | 24:27.00 | 6:11.40 | 110025 | 137889
8 | 30:38.40 | 4:35.13 | 137890 | 158527
9 | 35:13.53 | 5:56.23 | 158528 | 185250
10 | 41:10.01 | 3:46.32 | 185251 | 202232
11 | 44:56.33 | 7:45.42 | 202233 | 237149
12 | 52:42.00 | 5:14.62 | 237150 | 260761
13 | 57:56.62 | 3:40.50 | 260762 | 277311
14 | 61:37.37 | 3:54.17 | 277312 | 294878
15 | 65:31.54 | 5:19.73 | 294879 | 318876


Range status and errors

Selected range

Filename G:\Gunfire - Thunder Of War.wav

Peak level 99.2 %
Range quality 100.0 %
Copy CRC E75DE8F5
Copy OK

No errors occurred


AccurateRip summary

Track 1 cannot be verified as accurate (confidence 1) [BE0C0F6E], AccurateRip returned [CDC18F4E]
Track 2 cannot be verified as accurate (confidence 1) [74249F2D], AccurateRip returned [7FD0553C]
Track 3 cannot be verified as accurate (confidence 1) [3E584620], AccurateRip returned [E6C5E294]
Track 4 cannot be verified as accurate (confidence 1) [BA4477F3], AccurateRip returned [238591CD]
Track 5 cannot be verified as accurate (confidence 1) [A464B1C3], AccurateRip returned [8788D9C5]
Track 6 cannot be verified as accurate (confidence 1) [5B383A3E], AccurateRip returned [4DF3A884]
Track 7 cannot be verified as accurate (confidence 1) [911D468F], AccurateRip returned [A4DEF86D]
Track 8 cannot be verified as accurate (confidence 1) [EDC40878], AccurateRip returned [7D7B60C0]
Track 9 cannot be verified as accurate (confidence 1) [D2D682D9], AccurateRip returned [FD56836B]
Track 10 cannot be verified as accurate (confidence 1) [F6DD6248], AccurateRip returned [465897DE]
Track 11 cannot be verified as accurate (confidence 1) [F8BAB036], AccurateRip returned [1610B0E6]
Track 12 cannot be verified as accurate (confidence 1) [71981240], AccurateRip returned [2DD5C2E4]
Track 13 cannot be verified as accurate (confidence 1) [7612FB97], AccurateRip returned [91449923]
Track 14 cannot be verified as accurate (confidence 1) [F032A35D], AccurateRip returned [0B362531]
Track 15 cannot be verified as accurate (confidence 1) [37C48C10], AccurateRip returned [E7AB6F97]

No tracks could be verified as accurate
You may have a different pressing from the one(s) in the database

End of status report

"Cue"
REM GENRE "Power/Speed Metal"
REM DATE 2004
REM DISCID E1109B0F
REM COMMENT "ExactAudioCopy v0.99pb5"
PERFORMER "Gunfire"
TITLE "Thunder Of War"
FILE "Gunfire - Thunder Of War.flac" WAVE
TRACK 01 AUDIO
TITLE "The King's Amulet"
PERFORMER "Gunfire"
FLAGS DCP
INDEX 01 00:00:00
TRACK 02 AUDIO
TITLE "A Vision In Starlight"
PERFORMER "Gunfire"
FLAGS DCP
INDEX 01 04:48:07
TRACK 03 AUDIO
TITLE "Deceiver"
PERFORMER "Gunfire"
FLAGS DCP
INDEX 01 05:50:38
TRACK 04 AUDIO
TITLE "Gunfire"
PERFORMER "Gunfire"
FLAGS DCP
INDEX 01 11:03:27
TRACK 05 AUDIO
TITLE "Thunder Of War"
PERFORMER "Gunfire"
FLAGS DCP
INDEX 01 15:38:54
TRACK 06 AUDIO
TITLE "the Fight For The Truth"
PERFORMER "Gunfire"
FLAGS DCP
INDEX 01 19:19:17
TRACK 07 AUDIO
TITLE "i Shall Return"
PERFORMER "Gunfire"
FLAGS DCP
INDEX 01 24:27:00
TRACK 08 AUDIO
TITLE "Sailing Through The Gates Of The World"
PERFORMER "Gunfire"
FLAGS DCP
INDEX 01 30:38:40
TRACK 09 AUDIO
TITLE "Livin' In Sin"
PERFORMER "Gunfire"
FLAGS DCP
INDEX 01 35:13:53
TRACK 10 AUDIO
TITLE "Heavens Of Mars"
PERFORMER "Gunfire"
FLAGS DCP
INDEX 01 41:10:01
TRACK 11 AUDIO
TITLE "Twilight For The Gods"
PERFORMER "Gunfire"
FLAGS DCP
INDEX 01 44:56:33
TRACK 12 AUDIO
TITLE "Hard Steel ('Gunfire' EP Version)"
PERFORMER "Gunfire"
FLAGS DCP
INDEX 01 52:42:00
TRACK 13 AUDIO
TITLE "Thunder Of War ('Gunfire' EP Version)"
PERFORMER "Gunfire"
FLAGS DCP
INDEX 01 57:56:62
TRACK 14 AUDIO
TITLE "Gunfire ('Gunfire' EP Version)"
PERFORMER "Gunfire"
FLAGS DCP
INDEX 01 61:37:37
TRACK 15 AUDIO
TITLE "Wings Of Death ('Gunfire' EP Version)"
PERFORMER "Gunfire"
FLAGS DCP
INDEX 01 65:31:54

"Спектр"
Image

narod-скачать


Last edited by KIN on 18 Feb 2012, edited 7 times in total.

Top
 Profile E-mail  
 
 
PostPosted: 18 Feb 2012 
хард н хэвщик (support team)
User avatar
Joined: 02 Jun 2008
Posts: 16881
Lоcаtion: Н.Новгород
Age: 32
Name: Артем
KIN wrote:
http://narod.ru/disk/41100592001/GUNFIR ... D.rar.html

ссылочка коряво скопипастена :oops:


Top
 Profile  
 
 
PostPosted: 18 Feb 2012 
Пионэръ
User avatar
Joined: 08 Nov 2010
Posts: 43
Lоcаtion: Россия
Name: Юрий
McKagan

Исправил.


Top
 Profile E-mail  
 
 
PostPosted: 18 Feb 2012 
Хиппей (support team)
User avatar
Joined: 30 Jul 2007
Posts: 114095
Lоcаtion: Киев (Kyiv, UA)
Age: 46
Name: Andrey
:thanx:

Авось понравится... :vic:

mirror: Speedy l Narod

_________________


Top
 Profile E-mail  
 
 
PostPosted: 18 Feb 2012 
Пионэръ
User avatar
Joined: 08 Nov 2010
Posts: 43
Lоcаtion: Россия
Name: Юрий
Scatterbrain
Думаю понравится, хорошая группа, мне понравилось.


Top
 Profile E-mail  
 
Display posts from previous:  Sort by  
Post new topic Reply to topic  [ 5 posts ] 

All times are UTC + 3 hours


Who is online

Users browsing this forum: No registered users and 1 guest


You cannot post new topics in this forum
You cannot reply to topics in this forum
You cannot edit your posts in this forum
You cannot delete your posts in this forum
You cannot post attachments in this forum

Search for:
Яндекс.Метрика
Powered by phpBB © 2000, 2002, 2005, 2007 phpBB Group