\m/ 80's metal \m/

Информационно-аналитический форум "80 см пыли" (In Search We Trust) "У нас никто никуда не спешит"
Me For You - http://me-4u.com
It is currently 18 Apr 2019

All times are UTC + 3 hours

Spoiler
Chat - temporary registration for foreign users (please leave your application here)







Post new topic Reply to topic  [ 5 posts ] 
Author Message
 
PostPosted: 30 Aug 2011 
адын фелософъ прокметолу
User avatar
Joined: 22 Oct 2009
Posts: 2751
Lоcаtion: Сочи
Age: 41
Name: Сергей
Image
Группа: Fatal Morgana
Альбом: In Quiet Us
Жанр: Progressive Metal
Год издания: 2010 (песни были записаны в период с 1995 по 2009 год)
Год издания данного носителя: 2010
Страна-производитель носителя: Greece
Аудио кодек: WAV
Тип рипа: Image+Cue+Log
Битрейт Аудио: Loseless
Продолжительность: 43:23
Рип: Собственный
Лейбл: Steel Gallery Records
Каталоговый Номер: SGR CD-022
Матрица: Optiarc DVD RW AD-7241S

Трэклист:
1. Close At Hand
2. In Speechless Words
3. ...Seemingly A Child
4. The Parting Ways
5. Scenes Of Grey
6. The Tempest

"cue"
REM GENRE "Progressive Metal"
REM DATE 2010
REM DISCID 480A2806
REM COMMENT "ExactAudioCopy v0.95b4"
PERFORMER "Fatal Morgana"
TITLE "In Quiet Us"
FILE "Fatal Morgana - In Quiet Us.wav" WAVE
TRACK 01 AUDIO
TITLE "Close At Hand"
PERFORMER "Fatal Morgana"
INDEX 01 00:00:00
TRACK 02 AUDIO
TITLE "In Speachless Words"
PERFORMER "Fatal Morgana"
INDEX 01 06:36:65
TRACK 03 AUDIO
TITLE "Seemingly A Child"
PERFORMER "Fatal Morgana"
INDEX 01 15:02:33
TRACK 04 AUDIO
TITLE "The Parting Ways"
PERFORMER "Fatal Morgana"
INDEX 01 22:07:66
TRACK 05 AUDIO
TITLE "Scenes Of Grey"
PERFORMER "Fatal Morgana"
INDEX 01 30:33:09
TRACK 06 AUDIO
TITLE "Prosperos Books Part I,II,III"
PERFORMER "Fatal Morgana"
INDEX 01 36:39:05


"log"
Отчёт EAC об извлечении, выполненном 27. августа 2011, 23:43 для диска:
Fatal Morgana / In Quiet Us

Дисковод: Optiarc DVD RW AD-7241S Adapter: 1 ID: 0
Режим чтения: Достоверный (C2: нет, Точный поток: да, Отключение кэша: да)
Коррекция смещения при чтении: 48
Способность читать области Lead-in и Lead-out : Нет

Выходной формат: Внутренние WAV-операции
44.100 Гц; 16 бит; стерео

Другие параметры:
Заполнение пропущенных сэмплов тишиной : Да
Удаление блоков с тишиной в начале и конце : Нет
Установленный внешний ASPI-интерфейс


Характеристики диапазона извлечения и сообщения об ошибках
Выбранный диапазон
Имя файла C:\Users\Сергей\Documents\Fatal Morgana\Fatal Morgana - In Quiet Us.wav

Пиковый уровень 100.0 %
Качество диапазона 100.0 %
CRC D26EE0DA
Копирование... OK

Ошибок не произошло

Конец отчёта


Состав:
George Moschos Guitars
Nick Glikiotis Guitars
Louis Hatzimichalis Vocals
Antony Arvanitis Bass
Kostas Tsobanos Drums
Dimitris Roussos Guitars
Bob Katsionis Keyboards

http://www.megaupload.com/?d=ZXC2TS05

Греки народ ленивый или невезучий. Так можно охарактеризовать этот коллектив. Уж извините по одной песне в год писать :vic: это наводит на определённые мысли. Слушая подобную музыку, хочется, что бы группа выпустила как можно больше альбомов. Но увы... :( в итоге мы имеем только сборник всех песен, записанный этой группой.

_________________
Я ненавижу гранж и альтернативную музыку


Top
 Profile E-mail  
 
 
PostPosted: 30 Aug 2011 
Прокъмитолист
User avatar
Joined: 12 Aug 2007
Posts: 6545
Lоcаtion: Санктъ-Петербуркъ
Age: 51
Name: Олекъ
спасибо, Серёга! :thanx: :true:

_________________
прокъметол - это музыко, от которово есть прок (ы)


Top
 Profile  
 
 
PostPosted: 30 Aug 2011 
спирт 100%
User avatar
Joined: 22 Sep 2008
Posts: 4390
Age: 47
Name: Саня
Серёга,Спасибо! :thanx: :true:


Top
 Profile  
 
 
PostPosted: 31 Aug 2011 
Хиппей (support team)
User avatar
Joined: 30 Jul 2007
Posts: 111649
Lоcаtion: Киев (Kyiv, UA)
Age: 45
Name: Andrey
:thanx:

_________________


Top
 Profile E-mail  
 
 
PostPosted: 02 Sep 2011 
Power Metal Maniac
User avatar
Joined: 09 Aug 2008
Posts: 6670
Lоcаtion: Москва
Age: 41
Name: Егор
не забыть скачать

_________________
Long Live Metal!


Top
 Profile  
 
Display posts from previous:  Sort by  
Post new topic Reply to topic  [ 5 posts ] 

All times are UTC + 3 hours


Who is online

Users browsing this forum: No registered users and 1 guest


You cannot post new topics in this forum
You cannot reply to topics in this forum
You cannot edit your posts in this forum
You cannot delete your posts in this forum
You cannot post attachments in this forum

Search for:
Яндекс.Метрика
Powered by phpBB © 2000, 2002, 2005, 2007 phpBB Group