\m/ 80's metal \m/

Информационно-аналитический форум "80 см пыли" (In Search We Trust) "У нас никто никуда не спешит"
Me For You - http://me-4u.com
It is currently 19 Jun 2019

All times are UTC + 3 hours

Spoiler
Chat - temporary registration for foreign users (please leave your application here)







Post new topic Reply to topic  [ 10 posts ] 
Author Message
 
PostPosted: 23 May 2011 
Работнечег
User avatar
Joined: 28 Aug 2007
Posts: 5846
Lоcаtion: г. Москва
Age: 30
Name: Дима
Image

Year: 1987 (Remastered In 2006)
Label: self-released
Country: UK
Style: Heavy Metal
Format: Flac + Cue + Log + Covers
Size: 372 Mb

Line-Up:
Kev Graham - bass, lead vocals
Ian Toomey - guitar (Bitches Sin)
Pete Toomey - guitar (Bitches Sin)
Steve Turton - drums, keyboards on "No More Love, No More Lies"


Tracklist:
1. Blackjack 04:05
2. Grand Prix 05:51
3. Hey You 03:32
4. Hot Tonight 05:03
5. I Need You 06:01
6. Is It True 05:52
7. Looking For Answers 03:43
8. Modern Lover 04:01
9. No More Love, No More Lies 06:19
10. Rock 'N' Roll Heart 04:02
11. Sweet Pretender 04:15

LOG
Exact Audio Copy V0.99 prebeta 5 from 4. May 2009

EAC extraction logfile from 15. May 2011, 16:47

Flash Point / No Point Of Reference

Used drive : PIONEER DVD-RW DVR-116D Adapter: 0 ID: 0

Read mode : Secure
Utilize accurate stream : Yes
Defeat audio cache : Yes
Make use of C2 pointers : No

Read offset correction : 96
Overread into Lead-In and Lead-Out : No
Fill up missing offset samples with silence : Yes
Delete leading and trailing silent blocks : No
Null samples used in CRC calculations : Yes
Used interface : Native Win32 interface for Win NT & 2000

Used output format : User Defined Encoder
Selected bitrate : 32 kBit/s
Quality : High
Add ID3 tag : No
Command line compressor : C:\Program Files\Exact Audio Copy\Flac\flac.exe
Additional command line options : -6 -V %s


TOC of the extracted CD

Track | Start | Length | Start sector | End sector
---------------------------------------------------------
1 | 0:00.00 | 4:58.49 | 0 | 22398
2 | 4:58.49 | 4:02.00 | 22399 | 40548
3 | 9:00.49 | 5:56.00 | 40549 | 67248
4 | 14:56.49 | 4:00.00 | 67249 | 85248
5 | 18:56.49 | 5:50.00 | 85249 | 111498
6 | 24:46.49 | 5:43.58 | 111499 | 137281
7 | 30:30.32 | 3:29.21 | 137282 | 152977
8 | 33:59.53 | 4:12.00 | 152978 | 171877
9 | 38:11.53 | 4:02.00 | 171878 | 190027
10 | 42:13.53 | 6:04.00 | 190028 | 217327


Range status and errors

Selected range

Filename D:\Музыка\Lossless\Flash Point - No Point Of Reference (1987) (Remastered In 2006)\Flash Point - No Point Of Reference.wav

Peak level 100.0 %
Range quality 100.0 %
Copy CRC 6C3DB6C7
Copy OK

No errors occurred


AccurateRip summary

Track 1 not present in database
Track 2 not present in database
Track 3 not present in database
Track 4 not present in database
Track 5 not present in database
Track 6 not present in database
Track 7 not present in database
Track 8 not present in database
Track 9 not present in database
Track 10 not present in database

None of the tracks are present in the AccurateRip database

End of status report

CUE
REM GENRE "Heavy Metal"
REM DATE 1990
REM DISCID 7F0B510A
REM COMMENT "ExactAudioCopy v0.99pb5"
PERFORMER "Flash Point"
TITLE "No Point Of Reference"
FILE "Flash Point - No Point Of Reference.flac" WAVE
TRACK 01 AUDIO
TITLE "Hot Tonight"
PERFORMER "Flash Point"
FLAGS DCP
INDEX 01 00:00:00
TRACK 02 AUDIO
TITLE "Blackjack"
PERFORMER "Flash Point"
FLAGS DCP
INDEX 00 04:56:49
INDEX 01 04:58:49
TRACK 03 AUDIO
TITLE "I Need It "
PERFORMER "Flash Point"
FLAGS DCP
INDEX 00 08:58:49
INDEX 01 09:00:49
TRACK 04 AUDIO
TITLE "Modern Lover"
PERFORMER "Flash Point"
FLAGS DCP
INDEX 00 14:54:49
INDEX 01 14:56:49
TRACK 05 AUDIO
TITLE "Is It True "
PERFORMER "Flash Point"
FLAGS DCP
INDEX 00 18:54:49
INDEX 01 18:56:49
TRACK 06 AUDIO
TITLE "Grand Prix"
PERFORMER "Flash Point"
FLAGS DCP
INDEX 00 24:44:49
INDEX 01 24:46:49
TRACK 07 AUDIO
TITLE "Hey You!"
PERFORMER "Flash Point"
FLAGS DCP
INDEX 00 30:28:32
INDEX 01 30:30:32
TRACK 08 AUDIO
TITLE "Sweet Pretender"
PERFORMER "Flash Point"
FLAGS DCP
INDEX 00 33:57:53
INDEX 01 33:59:53
TRACK 09 AUDIO
TITLE "Rock 'N' Roll Heart"
PERFORMER "Flash Point"
FLAGS DCP
INDEX 00 38:09:53
INDEX 01 38:11:53
TRACK 10 AUDIO
TITLE "No More Love, No More Lies "
PERFORMER "Flash Point"
FLAGS DCP
INDEX 00 42:11:53
INDEX 01 42:13:53

Spectrum
Image


Narod.Ru


Top
 Profile E-mail  
 
 
PostPosted: 23 May 2011 
А может смените мне статус?..
User avatar
Joined: 24 Dec 2008
Posts: 643
Age: 45
Name: Дмитрий
Спасибо, послушаем. :meloman:


Top
 Profile  
 
 
PostPosted: 23 May 2011 
Прокъмитолист
User avatar
Joined: 12 Aug 2007
Posts: 6557
Lоcаtion: Санктъ-Петербуркъ
Age: 51
Name: Олекъ
Дим, спасибо! :thanx:

_________________
прокъметол - это музыко, от которово есть прок (ы)


Top
 Profile  
 
 
PostPosted: 23 May 2011 
Хиппей (support team)
User avatar
Joined: 30 Jul 2007
Posts: 113091
Lоcаtion: Киев (Kyiv, UA)
Age: 46
Name: Andrey
Красота :thanx:
mirror: MultiUp l Narod

_________________


Top
 Profile E-mail  
 
 
PostPosted: 23 May 2011 
хард н хэвщик (support team)
User avatar
Joined: 02 Jun 2008
Posts: 16881
Lоcаtion: Н.Новгород
Age: 32
Name: Артем
Спасибо, Дим. :true: Помню-помню, ты говорил об этом переиздании ;)


Top
 Profile  
 
 
PostPosted: 23 May 2011 
Old Time Rock`n`Roll
User avatar
Joined: 23 Jun 2008
Posts: 3444
Lоcаtion: г.Ульяновск
Age: 40
Name: Константин
Дима, большое спасибо, уже качаю! :dance:


Top
 Profile  
 
 
PostPosted: 24 May 2011 
Труъ
User avatar
Joined: 14 Jul 2009
Posts: 158
Lоcаtion: Hell Is Here
Age: 48
Name: Adriano
Many Thanx !! :thanx:


Top
 Profile E-mail  
 
 
PostPosted: 31 Mar 2012 
Труъ
Joined: 01 Jan 2010
Posts: 118
Lоcаtion: MetaLWarrioR
Name: Сергей
Шикарный альбом! Спасибо!


Top
 Profile E-mail  
 
 
PostPosted: 31 Mar 2012 
Пионэръ
Joined: 12 Aug 2009
Posts: 23
Name: Явор
Да, красота!!! :true: Спасибо, Дима!!!


Top
 Profile E-mail  
 
 
PostPosted: 25 Aug 2012 
Труъ
User avatar
Joined: 05 Oct 2008
Posts: 194
Lоcаtion: Saint Petersburg
Age: 46
Name: Jesse
Не плохой альбом. Спасибо!


Top
 Profile  
 
Display posts from previous:  Sort by  
Post new topic Reply to topic  [ 10 posts ] 

All times are UTC + 3 hours


Who is online

Users browsing this forum: No registered users and 1 guest


You cannot post new topics in this forum
You cannot reply to topics in this forum
You cannot edit your posts in this forum
You cannot delete your posts in this forum
You cannot post attachments in this forum

Search for:
Яндекс.Метрика
Powered by phpBB © 2000, 2002, 2005, 2007 phpBB Group