\m/ 80's metal \m/

Информационно-аналитический форум "80 см пыли" (In Search We Trust) "У нас никто никуда не спешит"
Me For You - http://me-4u.com
It is currently 19 Jul 2019

All times are UTC + 3 hours

Spoiler
Chat - temporary registration for foreign users (please leave your application here)







Post new topic Reply to topic  [ 11 posts ] 
Author Message
 
PostPosted: 12 Dec 2010 
Работнечег
User avatar
Joined: 28 Aug 2007
Posts: 5919
Lоcаtion: г. Москва
Age: 30
Name: Дима
Image

Year: 1990
Label: Rumble Wodka Records :true:
Country: Belgium
Style: Heavy Metal
Format: Flac+Cue+Log+Covers
Size: 285 Mb

Line-Up:
Steve Rodgers - vocals
Pat Lemoine - guitar
Chris Forthomme - bass
Marc Van Neyghem - drums


Tracklist:
1. Don't Cross the Line 04:05
2. She Goes On 04:19
3. S.O.S. for Love 05:41
4. The Hero 04:11
5. I'm the Walrus (Beatles cover) 05:51
6. All the Night 05:50
7. Untill I Die 02:56
8. Can't See it No Way 05:15
9. Teenagers Rampage 04:59
Total playing time 43:07

LOG
Exact Audio Copy V0.99 prebeta 5 from 4. May 2009

EAC extraction logfile from 11. December 2010, 14:19

F.N. Guns / Good Shot

Used drive : PIONEER DVD-RW DVR-116D Adapter: 0 ID: 0

Read mode : Secure
Utilize accurate stream : Yes
Defeat audio cache : Yes
Make use of C2 pointers : No

Read offset correction : 96
Overread into Lead-In and Lead-Out : No
Fill up missing offset samples with silence : Yes
Delete leading and trailing silent blocks : No
Null samples used in CRC calculations : Yes
Used interface : Native Win32 interface for Win NT & 2000

Used output format : User Defined Encoder
Selected bitrate : 32 kBit/s
Quality : High
Add ID3 tag : No
Command line compressor : C:\Program Files\Exact Audio Copy\Flac\flac.exe
Additional command line options : -6 -V %s


TOC of the extracted CD

Track | Start | Length | Start sector | End sector
---------------------------------------------------------
1 | 0:00.32 | 4:06.00 | 32 | 18481
2 | 4:06.32 | 4:19.33 | 18482 | 37939
3 | 8:25.65 | 5:41.42 | 37940 | 63556
4 | 14:07.32 | 4:12.13 | 63557 | 82469
5 | 18:19.45 | 5:51.57 | 82470 | 108851
6 | 24:11.27 | 5:51.13 | 108852 | 135189
7 | 30:02.40 | 2:56.65 | 135190 | 148454
8 | 32:59.30 | 5:16.00 | 148455 | 172154
9 | 38:15.30 | 4:59.45 | 172155 | 194624


Range status and errors

Selected range

Filename D:\Музыка\Lossless\FN Guns - Good Shot (1990)\F.N. Guns - Good Shot.wav

Peak level 97.1 %
Range quality 99.9 %
Copy CRC B7A4A7F5
Copy OK

No errors occurred


AccurateRip summary

Track 1 not present in database
Track 2 not present in database
Track 3 not present in database
Track 4 not present in database
Track 5 not present in database
Track 6 not present in database
Track 7 not present in database
Track 8 not present in database
Track 9 not present in database

None of the tracks are present in the AccurateRip database

End of status report

CUE
REM GENRE "Heavy Metal"
REM DATE 1990
REM DISCID 750A2309
REM COMMENT "ExactAudioCopy v0.99pb5"
PERFORMER "F.N. Guns"
TITLE "Good Shot"
FILE "F.N. Guns - Good Shot.flac" WAVE
TRACK 01 AUDIO
TITLE "Don't Cross The Line"
PERFORMER "F.N. Guns"
INDEX 00 00:00:00
INDEX 01 00:00:32
TRACK 02 AUDIO
TITLE "She Goes On'"
PERFORMER "F.N. Guns"
INDEX 00 04:05:52
INDEX 01 04:06:32
TRACK 03 AUDIO
TITLE "SOS For Love"
PERFORMER "F.N. Guns"
INDEX 00 08:24:25
INDEX 01 08:25:65
TRACK 04 AUDIO
TITLE "The Hero"
PERFORMER "F.N. Guns"
INDEX 00 14:05:30
INDEX 01 14:07:32
TRACK 05 AUDIO
TITLE "I'm The Walrus"
PERFORMER "F.N. Guns"
INDEX 00 18:19:20
INDEX 01 18:19:45
TRACK 06 AUDIO
TITLE "All The Night"
PERFORMER "F.N. Guns"
INDEX 00 24:10:55
INDEX 01 24:11:27
TRACK 07 AUDIO
TITLE "Until I Die"
PERFORMER "F.N. Guns"
INDEX 00 30:02:30
INDEX 01 30:02:40
TRACK 08 AUDIO
TITLE "Can't See It No Way"
PERFORMER "F.N. Guns"
INDEX 00 32:58:45
INDEX 01 32:59:30
TRACK 09 AUDIO
TITLE "Tennagers Rampage"
PERFORMER "F.N. Guns"
INDEX 00 38:14:52
INDEX 01 38:15:30

Spectrum
Image


iFolder l Narod l M-Cloud

Остальные темы по группе на форуме:
FN Guns - Wild Child EP Lossless
FN Guns - Nightmare Lossless
FN Guns MP3 Discography


Last edited by church on 22 Dec 2010, edited 3 times in total.

Top
 Profile E-mail  
 
 
PostPosted: 12 Dec 2010 
Прокъмитолист
User avatar
Joined: 12 Aug 2007
Posts: 6574
Lоcаtion: Санктъ-Петербуркъ
Age: 51
Name: Олекъ
и здесь спасибо! :thanx: :true:

_________________
прокъметол - это музыко, от которово есть прок (ы)


Top
 Profile  
 
 
PostPosted: 12 Dec 2010 
Я набрал 1000 сообщений!
Joined: 12 Dec 2008
Posts: 1066
Lоcаtion: BULGARIA
Age: 40
Name: DIMITЪR
Спасибо, классно!!!! :true:


Top
 Profile  
 
 
PostPosted: 12 Dec 2010 
*** Умер ***
User avatar
Joined: 25 Apr 2009
Posts: 2188
Lоcаtion: Санкт-Петербург
Age: 33
Name: Кирилл
:thanx:


Top
 Profile E-mail  
 
 
PostPosted: 12 Dec 2010 
Хиппей (support team)
User avatar
Joined: 30 Jul 2007
Posts: 113537
Lоcаtion: Киев (Kyiv, UA)
Age: 46
Name: Andrey
:thanx: :true:

_________________


Top
 Profile E-mail  
 
 
PostPosted: 12 Dec 2010 
Хиппей (support team)
User avatar
Joined: 30 Jul 2007
Posts: 113537
Lоcаtion: Киев (Kyiv, UA)
Age: 46
Name: Andrey
church wrote:
5. I'm the Walrus (Beatles cover) 05:51

Ой. Я ж его вчерась слушал у каких-то АОРщиков... :scratch:

_________________


Top
 Profile E-mail  
 
 
PostPosted: 13 Dec 2010 
Я набрал 1000 сообщений!
User avatar
Joined: 25 Dec 2008
Posts: 1545
Age: 43
Name: Павел
О!Спасибо,Дима! :true:


Top
 Profile  
 
 
PostPosted: 13 Dec 2010 
Old Time Rock`n`Roll
User avatar
Joined: 23 Jun 2008
Posts: 3461
Lоcаtion: г.Ульяновск
Age: 40
Name: Константин
Спасибо! :true:


Top
 Profile  
 
 
PostPosted: 19 Dec 2010 
Пионэръ
User avatar
Joined: 08 Nov 2010
Posts: 43
Lоcаtion: Россия
Name: Юрий
Спасибо! забираю.


Top
 Profile E-mail  
 
 
PostPosted: 06 Feb 2012 
Генеральный thrasher
User avatar
Joined: 03 Oct 2008
Posts: 3714
Lоcаtion: Ханты-Мансийский АО
Age: 44
Name: Сергей
И здесь :thanx:


Top
 Profile  
 
 
PostPosted: 24 Feb 2017 
Хиппей (support team)
User avatar
Joined: 30 Jul 2007
Posts: 113537
Lоcаtion: Киев (Kyiv, UA)
Age: 46
Name: Andrey
Хороший альбом. Ещё несколько лет назад пёрся от этого хэви с вокалом очень схожим на Дэна Маккаферти из Nazareth :meloman:

6/10

_________________


Top
 Profile E-mail  
 
Display posts from previous:  Sort by  
Post new topic Reply to topic  [ 11 posts ] 

All times are UTC + 3 hours


Who is online

Users browsing this forum: No registered users and 2 guests


You cannot post new topics in this forum
You cannot reply to topics in this forum
You cannot edit your posts in this forum
You cannot delete your posts in this forum
You cannot post attachments in this forum

Search for:
Яндекс.Метрика
Powered by phpBB © 2000, 2002, 2005, 2007 phpBB Group