\m/ 80's metal \m/

Информационно-аналитический форум "80 см пыли" (In Search We Trust) "У нас никто никуда не спешит"
Me For You - http://me-4u.com
It is currently 25 Apr 2019

All times are UTC + 3 hours

Spoiler
Chat - temporary registration for foreign users (please leave your application here)







Post new topic Reply to topic  [ 11 posts ] 
Author Message
 
PostPosted: 31 Mar 2010 
Работнечег
User avatar
Joined: 28 Aug 2007
Posts: 5819
Lоcаtion: г. Москва
Age: 30
Name: Дима
Image

Year: 1994
Country: Belgium
Style: Heavy Metal
Format: Flac+Cue+Log
Size: 252 Mb
Label: Mausoleum Records

Tracklist:
1. Marathon Man 04:34
2. End of the Game 04:53
3. Nightmare 03:34
4. I'm a Man 04:26
5. Livin' Lovin' Maid 02:23
6. R'n'R is Like the Phoenix 04:07
7. No God No Master 05:20
8. Blow it Away 04:28
Total playing time 33:45

LOG
Exact Audio Copy V0.99 prebeta 5 from 4. May 2009

EAC extraction logfile from 31. March 2010, 12:11

FN Guns / Nightmare

Used drive : PIONEER DVD-RW DVR-116D Adapter: 0 ID: 0

Read mode : Secure
Utilize accurate stream : Yes
Defeat audio cache : Yes
Make use of C2 pointers : No

Read offset correction : 96
Overread into Lead-In and Lead-Out : No
Fill up missing offset samples with silence : Yes
Delete leading and trailing silent blocks : No
Null samples used in CRC calculations : Yes
Used interface : Native Win32 interface for Win NT & 2000

Used output format : User Defined Encoder
Selected bitrate : 32 kBit/s
Quality : High
Add ID3 tag : No
Command line compressor : C:\Program Files\Exact Audio Copy\Flac\flac.exe
Additional command line options : -6 -V %s


TOC of the extracted CD

Track | Start | Length | Start sector | End sector
---------------------------------------------------------
1 | 0:00.00 | 4:33.72 | 0 | 20546
2 | 4:33.72 | 4:51.43 | 20547 | 42414
3 | 9:25.40 | 3:34.27 | 42415 | 58491
4 | 12:59.67 | 4:34.40 | 58492 | 79081
5 | 17:34.32 | 2:23.03 | 79082 | 89809
6 | 19:57.35 | 4:07.07 | 89810 | 108341
7 | 24:04.42 | 5:19.45 | 108342 | 132311
8 | 29:24.12 | 4:21.40 | 132312 | 151926


Range status and errors

Selected range

Filename D:\Музыка\Lossless\FN Guns - Nightmare (1994)\FN Guns - Nightmare.wav

Peak level 99.8 %
Range quality 100.0 %
Copy CRC C073BEEE
Copy OK

No errors occurred


AccurateRip summary

Track 1 not present in database
Track 2 not present in database
Track 3 not present in database
Track 4 not present in database
Track 5 not present in database
Track 6 not present in database
Track 7 not present in database
Track 8 not present in database

None of the tracks are present in the AccurateRip database

End of status report

CUE
REM GENRE "Heavy Metal"
REM DATE 1994
REM DISCID 7507E908
REM COMMENT "ExactAudioCopy v0.99pb5"
PERFORMER "FN Guns"
TITLE "Nightmare"
FILE "FN Guns - Nightmare.flac" WAVE
TRACK 01 AUDIO
TITLE "Marathon Man"
PERFORMER "FN Guns"
INDEX 01 00:00:00
TRACK 02 AUDIO
TITLE "End Of The Game"
PERFORMER "FN Guns"
INDEX 00 04:32:25
INDEX 01 04:33:72
TRACK 03 AUDIO
TITLE "Nightmare"
PERFORMER "FN Guns"
INDEX 00 09:24:15
INDEX 01 09:25:40
TRACK 04 AUDIO
TITLE "I'm Man"
PERFORMER "FN Guns"
INDEX 00 12:58:42
INDEX 01 12:59:67
TRACK 05 AUDIO
TITLE "Livin' Lovin' Maid"
PERFORMER "FN Guns"
INDEX 00 17:32:65
INDEX 01 17:34:32
TRACK 06 AUDIO
TITLE "R' N R' Is Like The Phoenix"
PERFORMER "FN Guns"
INDEX 00 19:56:00
INDEX 01 19:57:35
TRACK 07 AUDIO
TITLE "No God No Master"
PERFORMER "FN Guns"
INDEX 00 24:02:45
INDEX 01 24:04:42
TRACK 08 AUDIO
TITLE "Blow It Away"
PERFORMER "FN Guns"
INDEX 00 29:21:57
INDEX 01 29:24:12

Spectrum
Image


Narod.ru
Сovers

Видимо на архивах ошиблись не только по поводу трэклиста , но и по поводу года переиздания.Так как на задничке написан 1994 год, а не 1996.


Last edited by church on 31 Mar 2010, edited 1 time in total.

Top
 Profile E-mail  
 
 
PostPosted: 31 Mar 2010 
труъ антисионист
User avatar
Joined: 01 Aug 2007
Posts: 4541
Lоcаtion: Откуда и большинство из нас
Age: 38
Name: Дядя Вова
Спасибо Димон! :true:

_________________
Image
Image


Top
 Profile  
 
 
PostPosted: 31 Mar 2010 
хард н хэвщик (support team)
User avatar
Joined: 02 Jun 2008
Posts: 16881
Lоcаtion: Н.Новгород
Age: 32
Name: Артем
:true: Спасибо, Дим :dance:


Top
 Profile  
 
 
PostPosted: 31 Mar 2010 
Работнечег
User avatar
Joined: 28 Aug 2007
Posts: 5819
Lоcаtion: г. Москва
Age: 30
Name: Дима
Добавил ссылку с облогами в первый пост!


Top
 Profile E-mail  
 
 
PostPosted: 31 Mar 2010 
Old Time Rock`n`Roll
User avatar
Joined: 23 Jun 2008
Posts: 3411
Lоcаtion: г.Ульяновск
Age: 40
Name: Константин
Большое спасибо! :thanx:


Top
 Profile  
 
 
PostPosted: 01 Apr 2010 
Труъ
User avatar
Joined: 14 Jul 2009
Posts: 158
Lоcаtion: Hell Is Here
Age: 48
Name: Adriano
Great, Thank You Very Much !


Top
 Profile E-mail  
 
 
PostPosted: 02 Apr 2010 
Прокъмитолист
User avatar
Joined: 12 Aug 2007
Posts: 6545
Lоcаtion: Санктъ-Петербуркъ
Age: 51
Name: Олекъ
спасибо, Дим! :thanx:

_________________
прокъметол - это музыко, от которово есть прок (ы)


Top
 Profile  
 
 
PostPosted: 02 Apr 2010 
Хиппей (support team)
User avatar
Joined: 30 Jul 2007
Posts: 111842
Lоcаtion: Киев (Kyiv, UA)
Age: 45
Name: Andrey
Спасибо, Димка! :thanx:

_________________


Top
 Profile E-mail  
 
 
PostPosted: 24 Jun 2010 
А может смените мне статус?..
Joined: 03 Jul 2009
Posts: 861
Lоcаtion: Serbia
Name: Laki
Thank you very much !!!!


Top
 Profile E-mail  
 
 
PostPosted: 25 Jun 2010 
А может смените мне статус?..
User avatar
Joined: 24 Dec 2008
Posts: 635
Age: 45
Name: Дмитрий
Спасибо, ознакомлюсь.


Top
 Profile  
 
 
PostPosted: 06 Feb 2012 
Генеральный thrasher
User avatar
Joined: 03 Oct 2008
Posts: 3696
Lоcаtion: Ханты-Мансийский АО
Age: 44
Name: Сергей
Спасибо,Димка! :losik:


Top
 Profile  
 
Display posts from previous:  Sort by  
Post new topic Reply to topic  [ 11 posts ] 

All times are UTC + 3 hours


Who is online

Users browsing this forum: No registered users and 1 guest


You cannot post new topics in this forum
You cannot reply to topics in this forum
You cannot edit your posts in this forum
You cannot delete your posts in this forum
You cannot post attachments in this forum

Search for:
Яндекс.Метрика
Powered by phpBB © 2000, 2002, 2005, 2007 phpBB Group