\m/ 80's metal \m/

Информационно-аналитический форум "80 см пыли" (In Search We Trust) "У нас никто никуда не спешит"
Me For You - http://me-4u.com
It is currently 24 Apr 2019

All times are UTC + 3 hours

Spoiler
Chat - temporary registration for foreign users (please leave your application here)







Post new topic Reply to topic  [ 17 posts ] 
Author Message
 
PostPosted: 24 Dec 2009 
Персональный статус
User avatar
Joined: 29 Jan 2009
Posts: 265
Lоcаtion: Таллин, Эстония.
Age: 32
Name: Роман Юрич
Forbidden - Twisted Into Form 1990 [WV] [1st Press]

Image

Band / Название Группы: Forbidden
Album title / Название Альбома : Twisted Into Form
Year / Год Выпуска : 1990
Genre / Жанр: Thrash Metal
Country / Страна : USA

Track list / Список Песен

01. 01:05 Parting Of The Ways
02. 05:57 Infinite
03. 04:34 Out Of Body
04. 04:52 Step By Step
05. 04:26 Twisted Into Form
06. 07:37 R.I.P.
07. 01:49 Spiral Depression
08. 04:36 Tossed Away
09. 06:14 One Foot In Hell


Technical info / Технические данные .

Source / Источник : CD
Format / Формат : WavPack, Lossless Very High Compression.
Resolution / Разрешение : 44 KHz / 16 Bit
Total playing time / Суммарное время проигрывания : 41:09
Album art / Полиграфия: Booklet, back cover, CD.
Буклет, задняя обложка, диск.


EAC Log
Exact Audio Copy V0.99 prebeta 5 from 4. May 2009

EAC extraction logfile from 7. January 2011, 15:08

Forbidden / Twisted Into Form

Used drive : ASUS DRW-1814BLT Adapter: 3 ID: 0

Read mode : Secure
Utilize accurate stream : Yes
Defeat audio cache : Yes
Make use of C2 pointers : No

Read offset correction : 6
Overread into Lead-In and Lead-Out : No
Fill up missing offset samples with silence : Yes
Delete leading and trailing silent blocks : No
Null samples used in CRC calculations : Yes
Used interface : Installed external ASPI interface

Used output format : Internal WAV Routines
Sample format : 44.100 Hz; 16 Bit; Stereo


TOC of the extracted CD

Track | Start | Length | Start sector | End sector
---------------------------------------------------------
1 | 0:00.50 | 1:04.57 | 50 | 4906
2 | 1:05.32 | 5:56.38 | 4907 | 31644
3 | 7:01.70 | 4:33.50 | 31645 | 52169
4 | 11:35.45 | 4:52.22 | 52170 | 74091
5 | 16:27.67 | 4:25.70 | 74092 | 94036
6 | 20:53.62 | 7:36.48 | 94037 | 128284
7 | 28:30.35 | 1:49.37 | 128285 | 136496
8 | 30:19.72 | 4:35.45 | 136497 | 157166
9 | 34:55.42 | 6:14.20 | 157167 | 185236


Range status and errors

Selected range

Filename F:\Vinyl ; CD ; Tape Rips\# Lossless Temp\Forbidden (1990) - Twisted Into Form [WV] [1st press] [Combat]\Forbidden (1990) - Twisted Into Form - WV.wav

Peak level 100.0 %
Range quality 100.0 %
Test CRC 6433841C
Copy CRC 6433841C
Copy OK

No errors occurred


AccurateRip summary

Track 1 accurately ripped (confidence 4) [BF7C6E18]
Track 2 accurately ripped (confidence 4) [4116DBCC]
Track 3 accurately ripped (confidence 4) [A302B18C]
Track 4 accurately ripped (confidence 4) [55D5274B]
Track 5 accurately ripped (confidence 4) [C3CF3F4A]
Track 6 accurately ripped (confidence 4) [13EAA398]
Track 7 accurately ripped (confidence 4) [D1B7F766]
Track 8 accurately ripped (confidence 4) [F600D92A]
Track 9 accurately ripped (confidence 4) [EA84C73D]

All tracks accurately ripped

End of status report

CUE Sheet
REM GENRE "Thrash Metal"
REM DATE 1990
REM DISCID 7E09A509
REM COMMENT "ExactAudioCopy v0.99pb5"
PERFORMER "Forbidden"
TITLE "Twisted Into Form"
FILE "Forbidden (1990) - Twisted Into Form - WV.wv" WAVE
TRACK 01 AUDIO
TITLE "Parting Of The Ways"
PERFORMER "Forbidden"
INDEX 00 00:00:00
INDEX 01 00:00:50
TRACK 02 AUDIO
TITLE "Infinite"
PERFORMER "Forbidden"
INDEX 01 01:05:32
TRACK 03 AUDIO
TITLE "Out Of Body"
PERFORMER "Forbidden"
INDEX 01 07:01:70
TRACK 04 AUDIO
TITLE "Step By Step"
PERFORMER "Forbidden"
INDEX 00 11:33:70
INDEX 01 11:35:45
TRACK 05 AUDIO
TITLE "Twisted Into Form"
PERFORMER "Forbidden"
INDEX 01 16:27:67
TRACK 06 AUDIO
TITLE "R.I.P."
PERFORMER "Forbidden"
INDEX 01 20:53:62
TRACK 07 AUDIO
TITLE "Spiral Depression"
PERFORMER "Forbidden"
INDEX 01 28:30:35
TRACK 08 AUDIO
TITLE "Tossed Away"
PERFORMER "Forbidden"
INDEX 01 30:19:72
TRACK 09 AUDIO
TITLE "One Foot In Hell"
PERFORMER "Forbidden"
INDEX 01 34:55:42


Comment / Комментарий

One of the best Thrash albums of the 90's. Ripped from the first press CD (Combat).
Один из лучших Трэш альбомов 90-ых. Рип сделан с первого издания под Combat.


Links / Ссылки

Rapidshare
Sendspace
Megaupload
MultiUpload

Forbidden (1990) - Twisted Into Form [320] [MP3]

_________________
Death The Ultimate Reality
Death The Ultimate Reason To Live


Last edited by MetalMilitia on 08 Jan 2011, edited 2 times in total.

Top
 Profile  
 
 
PostPosted: 24 Dec 2009 
HAMMER
User avatar
Joined: 16 May 2009
Posts: 5477
Lоcаtion: Тверь
Age: 46
Name: Александр
Спасибо.


Top
 Profile E-mail  
 
 
PostPosted: 24 Dec 2009 
Хиппей (support team)
User avatar
Joined: 30 Jul 2007
Posts: 111812
Lоcаtion: Киев (Kyiv, UA)
Age: 45
Name: Andrey
Спасибо, Ром :thanx:
Не заливай, плиз, коврики на голимый сендспасе, они там недолго пролежат. Лучше сразу в архив добавлять.

_________________


Top
 Profile E-mail  
 
 
PostPosted: 24 Dec 2009 
.
User avatar
Joined: 25 Aug 2007
Posts: 568
Lоcаtion: Москва
Age: 107
Name: Kostolom
да, отличная вещь, давно есть..


Top
 Profile  
 
 
PostPosted: 25 Dec 2009 
Персональный статус
User avatar
Joined: 29 Jan 2009
Posts: 265
Lоcаtion: Таллин, Эстония.
Age: 32
Name: Роман Юрич
На сендспайсе у меня аккаунт теперье сть, лежать они там будут долго :)

_________________
Death The Ultimate Reality
Death The Ultimate Reason To Live


Top
 Profile  
 
 
PostPosted: 25 Dec 2009 
Хиппей (support team)
User avatar
Joined: 30 Jul 2007
Posts: 111812
Lоcаtion: Киев (Kyiv, UA)
Age: 45
Name: Andrey
Ааа, так ты хитрый :true:

_________________


Top
 Profile E-mail  
 
 
PostPosted: 07 Jan 2011 
Персональный статус
User avatar
Joined: 29 Jan 2009
Posts: 265
Lоcаtion: Таллин, Эстония.
Age: 32
Name: Роман Юрич
Перезаливать буду. Архив побитый оказался. Залью одним файлом.

_________________
Death The Ultimate Reality
Death The Ultimate Reason To Live


Top
 Profile  
 
 
PostPosted: 07 Jan 2011 
Thrasher
User avatar
Joined: 07 Oct 2007
Posts: 2760
Lоcаtion: Russia, Moscow
Age: 35
Name: Drunk & Evil
я с сендспейса стянул, ничего не побито :pardon:

_________________
ВОДКА, БАБЫ И БЛЮЗ / 40° till death... :bodun:
One time we saw some hookers, but when we got closer, we realised it was Mötley Crüe. ©


Top
 Profile  
 
 
PostPosted: 07 Jan 2011 
Персональный статус
User avatar
Joined: 29 Jan 2009
Posts: 265
Lоcаtion: Таллин, Эстония.
Age: 32
Name: Роман Юрич
Так ты год назад тянул этот альбом (примерно). На сендспейсе его давно уже нет.

_________________
Death The Ultimate Reality
Death The Ultimate Reason To Live


Top
 Profile  
 
 
PostPosted: 07 Jan 2011 
Thrasher
User avatar
Joined: 07 Oct 2007
Posts: 2760
Lоcаtion: Russia, Moscow
Age: 35
Name: Drunk & Evil
:crazy: :crazy: :crazy:

я альбомы перепутал

_________________
ВОДКА, БАБЫ И БЛЮЗ / 40° till death... :bodun:
One time we saw some hookers, but when we got closer, we realised it was Mötley Crüe. ©


Top
 Profile  
 
 
PostPosted: 07 Jan 2011 
Thrasher
User avatar
Joined: 07 Oct 2007
Posts: 2760
Lоcаtion: Russia, Moscow
Age: 35
Name: Drunk & Evil
Ага вот заодно и за этот выражу благодарность!!!

Спасибо! :thanx:

п.с. а так откуда качать счас его?

_________________
ВОДКА, БАБЫ И БЛЮЗ / 40° till death... :bodun:
One time we saw some hookers, but when we got closer, we realised it was Mötley Crüe. ©


Top
 Profile  
 
 
PostPosted: 08 Jan 2011 
metallpaparazzy
User avatar
Joined: 20 Dec 2009
Posts: 674
Lоcаtion: Днепропетровск
Age: 44
Name: Геннадий
MetalMilitia wrote:
Перезаливать буду

буду премного благодарен :thanx:


Top
 Profile E-mail  
 
 
PostPosted: 08 Jan 2011 
Персональный статус
User avatar
Joined: 29 Jan 2009
Posts: 265
Lоcаtion: Таллин, Эстония.
Age: 32
Name: Роман Юрич
На Рапиде и Сендспейсе теперь альбом одним архивом. Скоро появится ссылка на Мегу.

_________________
Death The Ultimate Reality
Death The Ultimate Reason To Live


Top
 Profile  
 
 
PostPosted: 08 Jan 2011 
Thrasher
User avatar
Joined: 07 Oct 2007
Posts: 2760
Lоcаtion: Russia, Moscow
Age: 35
Name: Drunk & Evil
:true: :true: :true:

_________________
ВОДКА, БАБЫ И БЛЮЗ / 40° till death... :bodun:
One time we saw some hookers, but when we got closer, we realised it was Mötley Crüe. ©


Top
 Profile  
 
 
PostPosted: 08 Jan 2011 
Персональный статус
User avatar
Joined: 29 Jan 2009
Posts: 265
Lоcаtion: Таллин, Эстония.
Age: 32
Name: Роман Юрич
Альбом перерипован, перепакован и выгружен одним файлом на три обменника. Дольше всего он будет лежать на рапиде, практически вечно (если верить их утверждениям). Наслаждайтесь.

_________________
Death The Ultimate Reality
Death The Ultimate Reason To Live


Top
 Profile  
 
 
PostPosted: 08 Jan 2011 
Thrasher
User avatar
Joined: 07 Oct 2007
Posts: 2760
Lоcаtion: Russia, Moscow
Age: 35
Name: Drunk & Evil
Спасибо еще раз, но вот как показывает практика, дольше всего хранится на меге...

_________________
ВОДКА, БАБЫ И БЛЮЗ / 40° till death... :bodun:
One time we saw some hookers, but when we got closer, we realised it was Mötley Crüe. ©


Top
 Profile  
 
 
PostPosted: 08 Jan 2011 
дядя Миша
User avatar
Joined: 17 Oct 2008
Posts: 3101
Lоcаtion: USSR
Age: 56
Name: Khy
Спасибо, Роман, замечательно , качаем..... бэнд что надо , раньше как то не замечал... А в том году порвали просто.


Top
 Profile  
 
Display posts from previous:  Sort by  
Post new topic Reply to topic  [ 17 posts ] 

All times are UTC + 3 hours


Who is online

Users browsing this forum: No registered users and 3 guests


You cannot post new topics in this forum
You cannot reply to topics in this forum
You cannot edit your posts in this forum
You cannot delete your posts in this forum
You cannot post attachments in this forum

Search for:
Яндекс.Метрика
Powered by phpBB © 2000, 2002, 2005, 2007 phpBB Group