\m/ 80's metal \m/

Информационно-аналитический форум "80 см пыли" (In Search We Trust) "У нас никто никуда не спешит"
Me For You - http://me-4u.com
It is currently 25 Apr 2019

All times are UTC + 3 hours

Spoiler
Chat - temporary registration for foreign users (please leave your application here)







Post new topic Reply to topic  [ 20 posts ] 
Author Message
 
PostPosted: 13 Sep 2009 
Генеральный thrasher
User avatar
Joined: 03 Oct 2008
Posts: 3696
Lоcаtion: Ханты-Мансийский АО
Age: 44
Name: Сергей
Image

Album:As Above, So Below
Year:1991
Country:U.S.A.
Format:Flac+Cue+Log
Size:304Mb

Tracklist:
1 Bone Crackin' Fever 5:52
2 Thunderhead 4:11
3 Macrocosm, Microcosm 4:33
4 Never A Know, But The No 4:34
5 We're Dicks 3:13
6 Apathy 5:38
7 The Unextinguishable 3:34
8 As Of Yesterday 5:19
9 When One Becomes Two 5:28
10 How We Spent Our Summer Vacation 2:53

Total Time: 45:18

Log
Exact Audio Copy V0.99 prebeta 4 from 23. January 2008

EAC extraction logfile from 27. April 2009, 23:10

Forced Entry / As Above, So Below

Used drive : PLEXTOR CD-R PREMIUM Adapter: 2 ID: 1

Read mode : Secure
Utilize accurate stream : Yes
Defeat audio cache : Yes
Make use of C2 pointers : No

Read offset correction : 30
Overread into Lead-In and Lead-Out : Yes
Fill up missing offset samples with silence : Yes
Delete leading and trailing silent blocks : No
Null samples used in CRC calculations : Yes
Used interface : Native Win32 interface for Win NT & 2000

Used output format : Internal WAV Routines
Sample format : 44.100 Hz; 16 Bit; Stereo


TOC of the extracted CD

Track | Start | Length | Start sector | End sector
---------------------------------------------------------
1 | 0:00.50 | 5:52.25 | 50 | 26474
2 | 5:53.00 | 4:11.22 | 26475 | 45321
3 | 10:04.22 | 4:32.65 | 45322 | 65786
4 | 14:37.12 | 4:33.55 | 65787 | 86316
5 | 19:10.67 | 3:12.70 | 86317 | 100786
6 | 22:23.62 | 5:38.25 | 100787 | 126161
7 | 28:02.12 | 3:33.65 | 126162 | 142201
8 | 31:36.02 | 5:18.63 | 142202 | 166114
9 | 36:54.65 | 5:28.05 | 166115 | 190719
10 | 42:22.70 | 2:53.40 | 190720 | 203734


Range status and errors

Selected range

Filename J:\RIPS_EAC\Forced Entry - As Above, So Below.wav

Peak level 92.9 %
Range quality 100.0 %
Test CRC 9E2DC8DF
Copy CRC 9E2DC8DF
Copy OK

No errors occurred


AccurateRip summary

Track 1 accurately ripped (confidence 4) [68055414]
Track 2 accurately ripped (confidence 4) [322193B7]
Track 3 accurately ripped (confidence 4) [4E1C7E7D]
Track 4 accurately ripped (confidence 4) [41B09988]
Track 5 accurately ripped (confidence 4) [60D9B69E]
Track 6 accurately ripped (confidence 4) [4B05CE20]
Track 7 accurately ripped (confidence 4) [6D787C7A]
Track 8 accurately ripped (confidence 4) [BACCDB2A]
Track 9 accurately ripped (confidence 4) [9E9AAFAD]
Track 10 accurately ripped (confidence 4) [EB2122B0]

All tracks accurately ripped

End of status report


Cue
REM GENRE "Thrash Metal"
REM DATE 1991
REM DISCID 900A9C0A
REM COMMENT "ExactAudioCopy v0.99pb4"
PERFORMER "Forced Entry"
TITLE "As Above, So Below"
FILE "Forced Entry - As Above, So Below.flac" WAVE
TRACK 01 AUDIO
TITLE "Bone Crackin' Fever"
PERFORMER "Forced Entry"
INDEX 00 00:00:00
INDEX 01 00:00:50
TRACK 02 AUDIO
TITLE "Thunderhead"
PERFORMER "Forced Entry"
INDEX 01 05:53:00
TRACK 03 AUDIO
TITLE "Macrocosm, Microcosm"
PERFORMER "Forced Entry"
INDEX 00 10:04:07
INDEX 01 10:04:22
TRACK 04 AUDIO
TITLE "Never A Know, But The No"
PERFORMER "Forced Entry"
INDEX 01 14:37:12
TRACK 05 AUDIO
TITLE "We're Dicks"
PERFORMER "Forced Entry"
INDEX 00 19:10:37
INDEX 01 19:10:67
TRACK 06 AUDIO
TITLE "Apathy"
PERFORMER "Forced Entry"
INDEX 00 22:23:45
INDEX 01 22:23:62
TRACK 07 AUDIO
TITLE "The Unextinguishable"
PERFORMER "Forced Entry"
INDEX 01 28:02:12
TRACK 08 AUDIO
TITLE "As Of Yesterday"
PERFORMER "Forced Entry"
INDEX 01 31:36:02
TRACK 09 AUDIO
TITLE "When One Becomes Two"
PERFORMER "Forced Entry"
INDEX 00 36:54:50
INDEX 01 36:54:65
TRACK 10 AUDIO
TITLE "How We Spent Our Summer Vacation"
PERFORMER "Forced Entry"
INDEX 00 42:22:67
INDEX 01 42:22:70


Spectrum
Image


http://www.megaupload.com/?d=B2C5SFO0


Top
 Profile  
 
 
PostPosted: 13 Sep 2009 
Анатолий
User avatar
Joined: 18 Oct 2008
Posts: 3413
Lоcаtion: Армавир
Age: 41
Name: Анатолий
thorbeorn

Спасибо большое за релиз! :thanx: :true:


Top
 Profile E-mail  
 
 
PostPosted: 13 Sep 2009 
труъ антисионист
User avatar
Joined: 01 Aug 2007
Posts: 4541
Lоcаtion: Откуда и большинство из нас
Age: 38
Name: Дядя Вова
Отличный альбом! :true:

_________________
Image
Image


Top
 Profile  
 
 
PostPosted: 13 Sep 2009 
Генеральный thrasher
User avatar
Joined: 03 Oct 2008
Posts: 3696
Lоcаtion: Ханты-Мансийский АО
Age: 44
Name: Сергей
Проверял Tau Analizer-oм.Все трэки CDDA.Теперь всегда проверяю,дабы не плодить лже-лосей...


Top
 Profile  
 
 
PostPosted: 13 Sep 2009 
Работнечег
User avatar
Joined: 28 Aug 2007
Posts: 5819
Lоcаtion: г. Москва
Age: 30
Name: Дима
Спасибо!


Top
 Profile E-mail  
 
 
PostPosted: 13 Sep 2009 
5cm
User avatar
Joined: 01 Mar 2009
Posts: 61
Name: Сергей
thorbeorn, Спасибо !


Top
 Profile  
 
 
PostPosted: 13 Sep 2009 
Хиппей (support team)
User avatar
Joined: 30 Jul 2007
Posts: 111851
Lоcаtion: Киев (Kyiv, UA)
Age: 45
Name: Andrey
Спасибо :true:

MultiUp l Narod

_________________


Top
 Profile E-mail  
 
 
PostPosted: 13 Sep 2009 
Генеральный thrasher
User avatar
Joined: 03 Oct 2008
Posts: 3696
Lоcаtion: Ханты-Мансийский АО
Age: 44
Name: Сергей
Лосиное стадо на форуме прибавляется на глазах...И это хорошо.


Top
 Profile  
 
 
PostPosted: 14 Sep 2009 
Пионэръ
Joined: 07 Apr 2009
Posts: 31
Lоcаtion: Deutschland
Age: 55
Name: Eric
spasibo bolschoje!!!

my cup of tea.


Top
 Profile  
 
 
PostPosted: 20 Sep 2009 
Пионэръ
User avatar
Joined: 01 Feb 2009
Posts: 44
Lоcаtion: UA
Age: 30
Name: .
Спасиб, люблю треш-лосики) :true:

_________________
We're pain, we're steel, a plot of knives, we're Transmaniacon MC.


Top
 Profile  
 
 
PostPosted: 18 Mar 2010 
Thrasher
User avatar
Joined: 07 Oct 2007
Posts: 2760
Lоcаtion: Russia, Moscow
Age: 35
Name: Drunk & Evil
Спасибо, отличная банда! :true: :true: :true:

_________________
ВОДКА, БАБЫ И БЛЮЗ / 40° till death... :bodun:
One time we saw some hookers, but when we got closer, we realised it was Mötley Crüe. ©


Top
 Profile  
 
 
PostPosted: 24 Apr 2012 
Хиппей (support team)
User avatar
Joined: 30 Jul 2007
Posts: 111851
Lоcаtion: Киев (Kyiv, UA)
Age: 45
Name: Andrey
Подобрался к альбому...
Мдя, не тот это FE :oops:

Этот тоже американский но типа хардкористо-трэшевый и типа даже техно-трэш.
Но, какой же невнятный, рваный, как резиновый мячик и бездушный, как юзаный презерватив :(

В общем, даже полу-баллада с чистым вокалом ни разу не зацепила.
Очередной проходняк. Или попытка сыграть что-то оригинальное, но на выходе получили какофонию из звуков и ритмов зарубежного тяжеляка.

Или я чего-то не вкурил? :vic:

зы. Самый лучший трэк из худших - последняя кроссоверная вещь. С соляком даже :dance:
Явный привед от Anthrax 1990 :pardon:

3/10

_________________


Top
 Profile E-mail  
 
 
PostPosted: 24 Apr 2012 
Персональный статус
Joined: 19 Jul 2010
Posts: 282
Lоcаtion: Москва
Name: Вадим
Сложный для моего восприятия альбом. При всём уважении к техно-трешу.


Top
 Profile E-mail  
 
 
PostPosted: 24 Apr 2012 
Хиппей (support team)
User avatar
Joined: 30 Jul 2007
Posts: 111851
Lоcаtion: Киев (Kyiv, UA)
Age: 45
Name: Andrey
Наоборот, альбом слишком простой. Но совсем уж "играем, что хотим и как получается" :fingal:

_________________


Top
 Profile E-mail  
 
 
PostPosted: 25 Apr 2012 
Персональный статус
Joined: 19 Jul 2010
Posts: 282
Lоcаtion: Москва
Name: Вадим
Scatterbrain wrote:
Наоборот, альбом слишком простой. :fingal:

Тяжело на слух ложится. Барабаны слишком для меня утомительные.


Top
 Profile E-mail  
 
 
PostPosted: 25 Apr 2012 
***


Last edited by Вася_металлист_2012 on 14 Dec 2012, edited 1 time in total.

Top
  
 
 
PostPosted: 26 Apr 2012 
***


Last edited by Вася_металлист_2012 on 14 Dec 2012, edited 1 time in total.

Top
  
 
 
PostPosted: 26 Apr 2012 
Хиппей (support team)
User avatar
Joined: 30 Jul 2007
Posts: 111851
Lоcаtion: Киев (Kyiv, UA)
Age: 45
Name: Andrey
Вася_металлист_2012 wrote:
но и ничем не хуже этой вашей Понтэры

Кстати, а что нравится у Пантеры или не нравится? Или это образное выражение и цитата? :crazy:
Ибо ж ничего общего в музыкальном плане эти две группы не имеют :vic:

_________________


Top
 Profile E-mail  
 
 
PostPosted: 26 Apr 2012 
***


Last edited by Вася_металлист_2012 on 14 Dec 2012, edited 1 time in total.

Top
  
 
 
PostPosted: 28 Apr 2012 
консэрваторъ
User avatar
Joined: 11 Aug 2007
Posts: 16840
Lоcаtion: Псков
Age: 45
Name: Сергей
Адская смесь какая-то прогкоровая :scratch: когда-нибудь может попробую осмыслить их творчество в будущем...
Forced Entry - Macrocosm, Microcasm | +
phpBB [youtube]

Кстати группа после этого альбома на следующий год распалась, потом в 95-ом собралась, выпустила епиху, записанную ешё в период сабжевого альбома и распалась снова, и была попытка воссоедениться в 02-м, которая тоже закончилась распадом...

_________________
THRASH 'EM ALL


Top
 Profile E-mail  
 
Display posts from previous:  Sort by  
Post new topic Reply to topic  [ 20 posts ] 

All times are UTC + 3 hours


Who is online

Users browsing this forum: No registered users and 3 guests


You cannot post new topics in this forum
You cannot reply to topics in this forum
You cannot edit your posts in this forum
You cannot delete your posts in this forum
You cannot post attachments in this forum

Search for:
Яндекс.Метрика
Powered by phpBB © 2000, 2002, 2005, 2007 phpBB Group