\m/ 80's metal \m/

Информационно-аналитический форум "80 см пыли" (In Search We Trust) "У нас никто никуда не спешит"
Me For You - http://me-4u.com
It is currently 19 Jun 2019

All times are UTC + 3 hours

Spoiler
Chat - temporary registration for foreign users (please leave your application here)







Post new topic Reply to topic  [ 4 posts ] 
Author Message
 
PostPosted: 21 Aug 2009 
Пионэръ
User avatar
Joined: 16 Apr 2009
Posts: 14
Age: 52
Name: Игорь
Image

Year: 1992
Style: Speed Metal
Country: USA
Format: flac (image+cue)
Size: 243 Mb


Релиз от speedica (MMT)

Line-Up:
James Randel - Vocals (Oliver Magnum)
Jeff Scott - Guitar
Greg Scott - Drums, Keyboards (Gestalt (US))
Ghames "Rev" Jones - Bass (Black Symphony, Jack Frost (US))

Tracklist:
01. Coming Of The Storm
02. The Inner Circle
03. Stranger Than Fiction
04. G-13 (Devoid Of Thought)
05. Mein Madness
06. Time And Time Again
07. Digitator
08. Between The Lies
09. The Last Word
10. The Promise

Log EAC
Exact Audio Copy V0.99 prebeta 4 from 23. January 2008

EAC extraction logfile from 10. August 2009, 17:46

Forte / Stranger Than Fiction

Used drive : PIONEER DVD-RW DVR-106D Adapter: 1 ID: 1

Read mode : Secure
Utilize accurate stream : Yes
Defeat audio cache : Yes
Make use of C2 pointers : No

Read offset correction : 48
Overread into Lead-In and Lead-Out : No
Fill up missing offset samples with silence : Yes
Delete leading and trailing silent blocks : No
Null samples used in CRC calculations : Yes
Used interface : Installed external ASPI interface

Used output format : User Defined Encoder
Selected bitrate : 32 kBit/s
Quality : High
Add ID3 tag : No
Command line compressor : C:Program FilesExact Audio CopyFlacflac.exe
Additional command line options : -6 -V %s


TOC of the extracted CD

Track | Start | Length | Start sector | End sector
---------------------------------------------------------
1 | 0:00.00 | 3:11.00 | 0 | 14324
2 | 3:11.00 | 3:35.67 | 14325 | 30516
3 | 6:46.67 | 3:29.63 | 30517 | 46254
4 | 10:16.55 | 1:12.35 | 46255 | 51689
5 | 11:29.15 | 3:55.10 | 51690 | 69324
6 | 15:24.25 | 3:29.60 | 69325 | 85059
7 | 18:54.10 | 4:24.57 | 85060 | 104916
8 | 23:18.67 | 2:36.08 | 104917 | 116624
9 | 25:55.00 | 3:27.00 | 116625 | 132149
10 | 29:22.00 | 4:36.17 | 132150 | 152866


Range status and errors

Selected range

Filename L:metalmadnessForte - Stranger Than Fiction.wav

Peak level 100.0 %
Range quality 99.9 %
Copy CRC FF1217CD
Copy OK

No errors occurred


AccurateRip summary

Track 1 accurately ripped (confidence 2) [7C8CC6EC]
Track 2 accurately ripped (confidence 2) [5428ADAF]
Track 3 accurately ripped (confidence 2) [7D00BFF3]
Track 4 accurately ripped (confidence 2) [F8563538]
Track 5 accurately ripped (confidence 2) [3F9BE092]
Track 6 accurately ripped (confidence 2) [E8A3FCF0]
Track 7 accurately ripped (confidence 2) [C51A7914]
Track 8 accurately ripped (confidence 2) [0A790FB7]
Track 9 accurately ripped (confidence 2) [9B376724]
Track 10 accurately ripped (confidence 2) [F6B1E626]

All tracks accurately ripped

End of status report


Скачать


Top
 Profile  
 
 
PostPosted: 21 Aug 2009 
Работнечег
User avatar
Joined: 28 Aug 2007
Posts: 5846
Lоcаtion: г. Москва
Age: 30
Name: Дима
И за этот мерси! :meloman:


Top
 Profile E-mail  
 
 
PostPosted: 21 Aug 2009 
Я набрал 1000 сообщений!
User avatar
Joined: 25 Dec 2008
Posts: 1545
Age: 43
Name: Павел
Спасибо,Игорь!По-моему этот альбом у них лучший.Затем их понесло в какой-то грув-,трэш-черт-знает-что(моде поддались!)


Top
 Profile  
 
 
PostPosted: 21 Aug 2009 
Хиппей (support team)
User avatar
Joined: 30 Jul 2007
Posts: 113091
Lоcаtion: Киев (Kyiv, UA)
Age: 46
Name: Andrey
Спасибо! :thanx:

_________________


Top
 Profile E-mail  
 
Display posts from previous:  Sort by  
Post new topic Reply to topic  [ 4 posts ] 

All times are UTC + 3 hours


Who is online

Users browsing this forum: No registered users and 1 guest


You cannot post new topics in this forum
You cannot reply to topics in this forum
You cannot edit your posts in this forum
You cannot delete your posts in this forum
You cannot post attachments in this forum

Search for:
Яндекс.Метрика
Powered by phpBB © 2000, 2002, 2005, 2007 phpBB Group