\m/ 80's metal \m/

Информационно-аналитический форум "80 см пыли" (In Search We Trust) "У нас никто никуда не спешит"
Me For You - http://me-4u.com
It is currently 19 Jul 2019

All times are UTC + 3 hours

Spoiler
Chat - temporary registration for foreign users (please leave your application here)







Post new topic Reply to topic  [ 13 posts ] 
Author Message
 
PostPosted: 10 May 2009 
А может смените мне статус?..
User avatar
Joined: 22 Nov 2008
Posts: 971
Lоcаtion: Schelcovo,Russia
Age: 47
Name: Сергей
Image
Faith And Fire(USA) - Accelerator (2006)

Genre: Hard Rock/Melodic Heavy Metal
Playing Time: 01:00:47

Tony Moore - Vocals (Riot)
Mike Flyntz - Guitar (Riot)
Danny Miranda - Bass (TNT, Blue Öyster Cult, Queen (live))
John Miceli - Drums

01. Ready [6:06]
02. Villanelle [5:49]
03. Everything [4:33]
04. Radio superstar [3:55]
05. Breathe [5:23]
06. Faith and fire [4:56]
07. Fallen [4:03]
08. Ashes [6:06]
09. Avenue Z [4:43]
10. Accelerator [5:30]
11. Angel (for Anne) [6:10]
12. America [3:32]

Mega



log
Отчёт EAC об извлечении, выполненном 21. ноября 2014, 12:00 для диска:
Accelerator / Faith And Fire

Дисковод: HL-DT-STDVDRAM GT32N Adapter: 0 ID: 1
Режим чтения: Достоверный (C2: нет, Точный поток: да, Отключение кэша: да)
Коррекция смещения при чтении: 0
Способность читать области Lead-in и Lead-out : Нет

Выходной формат: Внутренние WAV-операции
44.100 Гц; 16 бит; стерео

Другие параметры:
Заполнение пропущенных сэмплов тишиной : Да
Удаление блоков с тишиной в начале и конце : Нет
Установленный внешний ASPI-интерфейс


Характеристики диапазона извлечения и сообщения об ошибках
Выбранный диапазон
Имя файла C:\Users\Сергей\Music\Accelerator - Faith And Fire.wav

Пиковый уровень 100.0 %
Качество диапазона 99.9 %
CRC A0370697
Копирование... OK

Ошибок не произошло

Конец отчёта

------------------------------------------------------------

Отчёт EAC об извлечении, выполненном 21. ноября 2014, 12:00 для диска:
Accelerator / Faith And Fire

Дисковод: HL-DT-STDVDRAM GT32N Adapter: 0 ID: 1
Режим чтения: Достоверный (C2: нет, Точный поток: да, Отключение кэша: да)
Коррекция смещения при чтении: 0
Способность читать области Lead-in и Lead-out : Нет

Выходной формат: Внутренние WAV-операции
44.100 Гц; 16 бит; стерео

Другие параметры:
Заполнение пропущенных сэмплов тишиной : Да
Удаление блоков с тишиной в начале и конце : Нет
Установленный внешний ASPI-интерфейс


Характеристики диапазона извлечения и сообщения об ошибках
Выбранный диапазон
Имя файла C:\Users\Сергей\Music\Accelerator - Faith And Fire.wav

Пиковый уровень 100.0 %
Качество диапазона 99.9 %
CRC A0370697
Копирование... OK

Ошибок не произошло

Конец отчёта

cue
REM GENRE Metal
REM DATE 2006
REM DISCID B60E3E0C
REM COMMENT "ExactAudioCopy v0.95b4"
PERFORMER "Accelerator"
TITLE "Faith And Fire"
FILE "Accelerator - Faith And Fire.wav" WAVE
TRACK 01 AUDIO
TITLE "Ready"
PERFORMER "Accelerator"
INDEX 01 00:00:00
TRACK 02 AUDIO
TITLE "Villanelle"
PERFORMER "Accelerator"
INDEX 01 06:06:13
TRACK 03 AUDIO
TITLE "Everything"
PERFORMER "Accelerator"
INDEX 01 11:54:56
TRACK 04 AUDIO
TITLE "Radio Superstar"
PERFORMER "Accelerator"
INDEX 01 16:27:24
TRACK 05 AUDIO
TITLE "Breathe"
PERFORMER "Accelerator"
INDEX 01 20:22:52
TRACK 06 AUDIO
TITLE "Faith And Fire"
PERFORMER "Accelerator"
INDEX 01 25:46:13
TRACK 07 AUDIO
TITLE "Fallen"
PERFORMER "Accelerator"
INDEX 01 30:42:22
TRACK 08 AUDIO
TITLE "Ashes"
PERFORMER "Accelerator"
INDEX 01 34:45:59
TRACK 09 AUDIO
TITLE "Avenue Z"
PERFORMER "Accelerator"
INDEX 01 40:51:27
TRACK 10 AUDIO
TITLE "Accelerator"
PERFORMER "Accelerator"
INDEX 01 45:34:16
TRACK 11 AUDIO
TITLE "Angel"
PERFORMER "Accelerator"
INDEX 01 51:04:16
TRACK 12 AUDIO
TITLE "America"
PERFORMER "Accelerator"
INDEX 01 57:13:59


Last edited by snider1971 on 21 Nov 2014, edited 3 times in total.

Top
 Profile  
 
 
PostPosted: 10 May 2009 
Хиппей (support team)
User avatar
Joined: 30 Jul 2007
Posts: 113537
Lоcаtion: Киев (Kyiv, UA)
Age: 46
Name: Andrey
Thanx! :thanx:


Top
 Profile E-mail  
 
 
PostPosted: 21 Nov 2014 
А может смените мне статус?..
User avatar
Joined: 22 Nov 2008
Posts: 971
Lоcаtion: Schelcovo,Russia
Age: 47
Name: Сергей
Обновлена ссылка.


Top
 Profile  
 
 
PostPosted: 21 Nov 2014 
Хиппей (support team)
User avatar
Joined: 30 Jul 2007
Posts: 113537
Lоcаtion: Киев (Kyiv, UA)
Age: 46
Name: Andrey
Обновлена спасибка :thanx:

Image Image Image Image

mirror: Narod l M-Cloud

Image Image Image Image

_________________


Top
 Profile E-mail  
 
 
PostPosted: 01 Dec 2014 
Хиппей (support team)
User avatar
Joined: 30 Jul 2007
Posts: 113537
Lоcаtion: Киев (Kyiv, UA)
Age: 46
Name: Andrey
Странный какой-то альбом. Современный хард-рок.
Вроде ничого необычного, но сама музыка и звук оставляют ощущение погрызенной пластмассы.
Сдается мне снова, что релиз был записан на компе одним человеком-музыкантом :vic:

2/10

_________________


Top
 Profile E-mail  
 
 
PostPosted: 02 Dec 2014 
Хиппей (support team)
User avatar
Joined: 30 Jul 2007
Posts: 113537
Lоcаtion: Киев (Kyiv, UA)
Age: 46
Name: Andrey
snider1971 wrote:
08. Ashes [6:06]
09. Avenue Z [4:43]
10. Accelerator [5:30]
11. Angel (for Anne) [6:10]
12. America [3:32]

Только заметил, что 5 последних композиций на альбоме названы на букву Аааа :lloo:

_________________


Top
 Profile E-mail  
 
 
PostPosted: 02 Dec 2014 
А может смените мне статус?..
User avatar
Joined: 22 Nov 2008
Posts: 971
Lоcаtion: Schelcovo,Russia
Age: 47
Name: Сергей
snider1971 wrote:
08. Ashes [6:06]
09. Avenue Z [4:43]
10. Accelerator [5:30]
11. Angel (for Anne) [6:10]
12. America [3:32]

Только заметил, что 5 последних композиций на альбоме названы на букву Аааа :lloo:


Какой то шифр,сто пудов.
Теория заговора. :umnik:


Top
 Profile  
 
 
PostPosted: 02 Dec 2014 
Partisanen - nicht kapitulieren!!
User avatar
Joined: 25 Dec 2011
Posts: 7050
Lоcаtion: партизанские леса
Age: 46
Name: Владимир
Scatterbrain wrote:
Только заметил, что 5 последних композиций на альбоме названы на букву Аааа

угумс... а 6ая и 7ая - на F :shok:

_________________
One more beer and Heavy Metal and I'm just fine!
старовер, куле... слово "блин" - до сих пор через Ъ говорю


Top
 Profile E-mail  
 
 
PostPosted: 02 Dec 2014 
Доктор энтомологии
User avatar
Joined: 22 Jan 2009
Posts: 9804
Lоcаtion: Даугавпилс
Age: 44
Name: Алексей
Буквы "e" - в каждой теме :shok:


Top
 Profile  
 
 
PostPosted: 02 Dec 2014 
Хиппей (support team)
User avatar
Joined: 30 Jul 2007
Posts: 113537
Lоcаtion: Киев (Kyiv, UA)
Age: 46
Name: Andrey
Буквы "e" - в каждой теме :shok:

И все темы пронумерованы!!111 :stition:

_________________


Top
 Profile E-mail  
 
 
PostPosted: 02 Dec 2014 
Хиппей (support team)
User avatar
Joined: 30 Jul 2007
Posts: 113537
Lоcаtion: Киев (Kyiv, UA)
Age: 46
Name: Andrey
Scatterbrain wrote:
и звук оставляют ощущение погрызенной пластмассы

Ща снова слушаю. Не, звук нормальный. Это у меня вчера кто-то скотчем обмотал колонку :esel:
Но альбом шняпа всё рагно :(
Вторая половина немного напоминает Хэлловиновский "Камелеон".

_________________


Top
 Profile E-mail  
 
 
PostPosted: 02 Dec 2014 
А может смените мне статус?..
User avatar
Joined: 22 Nov 2008
Posts: 971
Lоcаtion: Schelcovo,Russia
Age: 47
Name: Сергей
Scatterbrain wrote:
и звук оставляют ощущение погрызенной пластмассы

Ща снова слушаю. Не, звук нормальный. Это у меня вчера кто-то скотчем обмотал колонку :esel:
Но альбом шняпа всё рагно :(
Вторая половина немного напоминает Хэлловиновский "Камелеон".


Андрей Саныч,альбом не плох.Слушай в третий раз!


Top
 Profile  
 
 
PostPosted: 02 Dec 2014 
Хиппей (support team)
User avatar
Joined: 30 Jul 2007
Posts: 113537
Lоcаtion: Киев (Kyiv, UA)
Age: 46
Name: Andrey
Серёг, не-не, я уже раз 7 послшал внимательно. Разбродная какая-то музыка. Нет целостности и чувства меры у ребят. Явно записывали весь альбом за пару часов :vic:
Тута даже не буду пенять на звёздный статус состава - альбом низкокачественный :fingal:

_________________


Top
 Profile E-mail  
 
Display posts from previous:  Sort by  
Post new topic Reply to topic  [ 13 posts ] 

All times are UTC + 3 hours


Who is online

Users browsing this forum: No registered users and 1 guest


You cannot post new topics in this forum
You cannot reply to topics in this forum
You cannot edit your posts in this forum
You cannot delete your posts in this forum
You cannot post attachments in this forum

Search for:
Яндекс.Метрика
Powered by phpBB © 2000, 2002, 2005, 2007 phpBB Group