\m/ 80's metal \m/

Информационно-аналитический форум "80 см пыли" (In Search We Trust) "У нас никто никуда не спешит"
Me For You - http://me-4u.com
It is currently 23 Apr 2019

All times are UTC + 3 hours

Spoiler
Chat - temporary registration for foreign users (please leave your application here)







Post new topic Reply to topic  [ 2 posts ] 
Author Message
 
PostPosted: 02 May 2009 
Хиппей (support team)
User avatar
Joined: 30 Jul 2007
Posts: 111788
Lоcаtion: Киев (Kyiv, UA)
Age: 45
Name: Andrey
Fair Warning - 2006 - Brother's Keeper

    Image

Genre: Hard Rock
Location: Germany
Format: flac+cue+log+covers
Size: 506 Mb


Line-up:
Tommy Heart Lead - vocals
Helge Engelke - guitars
Ule W. Ritgen - bass
C.C. Behrens - drums

    1. Don't Keep Me Waiting - 04:26
    2. Generation Jedi - 05:16
    3. All Of My Love - 04:55
    4. Rainbow Eyes - 04:12
    5. Push Me On - 12:54
    6. Wasted Time - 04:43
    7. The Cry - 04:30
    8. The Way - 05:11
    9. Once Bitten Twice Shy - 03:43
    10. Tell Me Lies - 05:04
    11. In The Dark - 05:34
    12. Still I Believe (European bonus track) - 05:33
    13. All I Wanna Do - 05:06

    TPT: 57:33

Mega

Звучание чуток "усовременнилось", придав группе какой-то особый шарм.
Хороший альбом. На 4 с плюсом.


Все благодарности за рип альбома товарищу ANDREY и Вовкиной шаре :thanx:

log
Exact Audio Copy V0.99 prebeta 4 from 23. January 2008

Отчёт EAC об извлечении, выполненном 27. марта 2009, 1:41

Fair Warning / Brother's Keeper

Дисковод: _NEC DVD_RW ND-3520A Adapter: 1 ID: 1

Режим чтения : Достоверность
Использование точного потока : Да
Отключение кэша аудио : Да
Использование указателей C2 : Нет

Коррекция смещения при чтении : 48
Способность читать области Lead-in и Lead-out : Нет
Заполнение пропущенных сэмплов тишиной : Да
Удаление блоков с тишиной в начале и конце : Нет
При вычислениях CRC использовались нулевые сэмплы : Да
Интерфейс : Установленный внешний ASPI-интерфейс

Выходной формат : Внутренние WAV-операции
Формат сэмплов : 44.100 Гц; 16 бит; стерео
Смещение при сжатии : 48


TOC извлечённого CD

Трек | Старт | Длительность | Начальный сектор | Конечный сектор
---------------------------------------------------------------------
1 | 0:00.00 | 4:27.59 | 0 | 20083
2 | 4:27.59 | 5:15.26 | 20084 | 43734
3 | 9:43.10 | 4:56.24 | 43735 | 65958
4 | 14:39.34 | 4:12.60 | 65959 | 84918
5 | 18:52.19 | 4:51.35 | 84919 | 106778
6 | 23:43.54 | 4:42.16 | 106779 | 127944
7 | 28:25.70 | 4:31.36 | 127945 | 148305
8 | 32:57.31 | 5:12.59 | 148306 | 171764
9 | 38:10.15 | 3:41.68 | 171765 | 188407
10 | 41:52.08 | 5:04.47 | 188408 | 211254
11 | 46:56.55 | 5:35.57 | 211255 | 236436
12 | 52:32.37 | 5:01.04 | 236437 | 259015
13 | 57:33.41 | 5:42.23 | 259016 | 284688


Характеристики диапазона извлечения и сообщения об ошибках

Выбранный диапазон

Имя файла C:\Documents and Settings\ANDREY\Рабочий стол\Fair Warning - Brother's Keeper.wav

Пиковый уровень 100.0 %
Качество диапазона 99.9 %
CRC копии 9EFF8D48
Копирование... OK

Ошибок не произошло

Конец отчёта

spectrum
Image


Top
 Profile E-mail  
 
 
PostPosted: 17 May 2009 
Пионэръ
Joined: 06 May 2009
Posts: 14
Name: lll22
Спасибо!!!


Top
 Profile E-mail  
 
Display posts from previous:  Sort by  
Post new topic Reply to topic  [ 2 posts ] 

All times are UTC + 3 hours


Who is online

Users browsing this forum: No registered users and 1 guest


You cannot post new topics in this forum
You cannot reply to topics in this forum
You cannot edit your posts in this forum
You cannot delete your posts in this forum
You cannot post attachments in this forum

Search for:
Яндекс.Метрика
Powered by phpBB © 2000, 2002, 2005, 2007 phpBB Group