\m/ 80's metal \m/

Информационно-аналитический форум "80 см пыли" (In Search We Trust) "У нас никто никуда не спешит"
Me For You - http://me-4u.com
It is currently 19 Apr 2019

All times are UTC + 3 hours

Spoiler
Chat - temporary registration for foreign users (please leave your application here)







Post new topic Reply to topic  [ 2 posts ] 
Author Message
 
PostPosted: 01 May 2009 
Хиппей (support team)
User avatar
Joined: 30 Jul 2007
Posts: 111675
Lоcаtion: Киев (Kyiv, UA)
Age: 45
Name: Andrey
Fair Warning - 1992 - Fair Warning [flac]

    Image

Genre: Hard Rock/Melodic Metal
Location: Germany
Format: flac+cue+log+covers
Size: 342 Mb


Line-up:
Tommy Heart - vocals (ex-V2)
Helge Engelke - Guitar
Andy Malecek - Guitars
Ule Winsome-Ritgen - Bass
C.C. Behrens - Drums

    1. Longing For Love - 03:50
    2. When Love Fails - 03:40
    3. The Call Of The Heart - 04:13
    4. Crazy - 03:49
    5. One Step Closer - 03:58
    6. Hang On - 04:02
    7. Out On The Run - 03:52
    8. Long Gone - 04:38
    9. The Eyes Of Rock - 03:46
    10. Take A Look At The Future - 03:54
    11. The Heat Of Emotion - 03:02
    12. Take Me Up - 04:27

    TPT: 47:12

Mega

Приятный мелодичный хард, чуть легче, чем прежняя группа товарища Томми Харта, но музыка очень приятная и запоминающаяся :meloman:

зы. За альбом все благодарности Вовке Глоту и его бесконечным винтам (а так же тому, кто рипнул этот диск и раздал через сайт торрентсру) :dance:

log
Exact Audio Copy V0.99 prebeta 4 from 23. January 2008

Отчёт EAC об извлечении, выполненном 1. мая 2008, 15:45

Fair Warning / Fair Warning

Дисковод: ASUS DRW-1814BLT Adapter: 3 ID: 0

Режим чтения : Достоверность
Использование точного потока : Да
Отключение кэша аудио : Да
Использование указателей C2 : Нет

Коррекция смещения при чтении : 6
Способность читать области Lead-in и Lead-out : Нет
Заполнение пропущенных сэмплов тишиной : Да
Удаление блоков с тишиной в начале и конце : Нет
При вычислениях CRC использовались нулевые сэмплы : Да
Интерфейс : Установленный внешний ASPI-интерфейс

Выходной формат : Пользовательский кодировщик
Выбранный битрейт : 768 kBit/s
Качество : Высокий
Добавление ID3-тэга : Нет
Утилита сжатия : C:\Program Files\Exact Audio Copy\FLAC\FLAC.EXE
Дополнительные параметры : -6 -V -T "ARTIST=%a" -T "TITLE=%t" -T "ALBUM=%g" -T "DATE=%y" -T "TRACKNUMBER=%n" -T "GENRE=%m" -T "COMMENT=%e" %s -o %d


TOC извлечённого CD

Трек | Старт | Длительность | Начальный сектор | Конечный сектор
---------------------------------------------------------------------
1 | 0:00.00 | 3:51.40 | 0 | 17364
2 | 3:51.40 | 3:43.50 | 17365 | 34139
3 | 7:35.15 | 4:15.25 | 34140 | 53289
4 | 11:50.40 | 3:50.32 | 53290 | 70571
5 | 15:40.72 | 4:00.03 | 70572 | 88574
6 | 19:41.00 | 4:03.47 | 88575 | 106846
7 | 23:44.47 | 3:55.10 | 106847 | 124481
8 | 27:39.57 | 4:41.13 | 124482 | 145569
9 | 32:20.70 | 3:47.45 | 145570 | 162639
10 | 36:08.40 | 3:56.10 | 162640 | 180349
11 | 40:04.50 | 3:03.57 | 180350 | 194131
12 | 43:08.32 | 4:25.45 | 194132 | 214051


Характеристики диапазона извлечения и сообщения об ошибках

Выбранный диапазон

Имя файла G:\Загрузки\MyTorrents\Fair Warning\1991 Fair Warning\FairWarning-FairWarning.wav

Пиковый уровень 97.2 %
Качество диапазона 100.0 %
CRC копии 51A0871F
Копирование... OK

Ошибок не произошло

Конец отчёта

spectrum
Image


Top
 Profile E-mail  
 
 
PostPosted: 17 May 2009 
Пионэръ
Joined: 06 May 2009
Posts: 14
Name: lll22
Спасибо!!!


Top
 Profile E-mail  
 
Display posts from previous:  Sort by  
Post new topic Reply to topic  [ 2 posts ] 

All times are UTC + 3 hours


Who is online

Users browsing this forum: No registered users and 1 guest


You cannot post new topics in this forum
You cannot reply to topics in this forum
You cannot edit your posts in this forum
You cannot delete your posts in this forum
You cannot post attachments in this forum

Search for:
Яндекс.Метрика
Powered by phpBB © 2000, 2002, 2005, 2007 phpBB Group