\m/ 80's metal \m/

Информационно-аналитический форум "80 см пыли" (In Search We Trust) "У нас никто никуда не спешит"
Me For You - http://me-4u.com
It is currently 19 Jun 2019

All times are UTC + 3 hours

Spoiler
Chat - temporary registration for foreign users (please leave your application here)







Post new topic Reply to topic  [ 465 posts ]  Go to page Previous  1 ... 7, 8, 9, 10, 11, 12, 13 ... 24  Next
Author Message
 
PostPosted: 20 Sep 2011 
парень в очёчкXаX!
User avatar
Joined: 15 Aug 2007
Posts: 2353
Lоcаtion: UK'раина, г. ЛондАн Би-Би-Си
Age: 48
Name: Сергей
ок! не парЪся, стараюсь следить за ссылками, в крайнем случае получу еще раз удовольствие, диски рядом то, обменивать их на пиво и женщин не собираюсь.....пАкА не собираюсь ))))))))) :nunu:

пы-ся: да, Анрюха с НАРОДом я не дружу, лью, но очень минингитно :fingal:


Top
 Profile  
 
 
PostPosted: 20 Sep 2011 
Хиппей (support team)
User avatar
Joined: 30 Jul 2007
Posts: 113091
Lоcаtion: Киев (Kyiv, UA)
Age: 46
Name: Andrey
attax wrote:
лью, но очень минингитно

А вот ради эксперименты попробуй лить из формы отправки письма, скорость... бешеная :shok:

_________________


Top
 Profile E-mail  
 
 
PostPosted: 20 Sep 2011 
парень в очёчкXаX!
User avatar
Joined: 15 Aug 2007
Posts: 2353
Lоcаtion: UK'раина, г. ЛондАн Би-Би-Си
Age: 48
Name: Сергей
не совсем понял? поясни в личку :oops: или ты про окошко на НАРД. где написано: Перетащите сюда ваши файлы с помощью мышки
слушай и потри ты этот весь наш разговор, а то нафлудили :nunu:


Top
 Profile  
 
 
PostPosted: 20 Sep 2011 
Хиппей (support team)
User avatar
Joined: 30 Jul 2007
Posts: 113091
Lоcаtion: Киев (Kyiv, UA)
Age: 46
Name: Andrey
attax wrote:
не совсем понял? поясни в личку

:arrow: viewtopic.php?p=122392#p122392 :al:

_________________


Top
 Profile E-mail  
 
 
PostPosted: 16 Jul 2012 
***


Last edited by Вася_металлист_2012 on 14 Dec 2012, edited 1 time in total.

Top
  
 
 
PostPosted: 16 Jul 2012 
хард н хэвщик (support team)
User avatar
Joined: 02 Jun 2008
Posts: 16881
Lоcаtion: Н.Новгород
Age: 32
Name: Артем
если от меня был получен лось - конечно можно, и, думаю, уже можно и в инет запускать лося ;)


Top
 Profile  
 
 
PostPosted: 16 Jul 2012 
парень в очёчкXаX!
User avatar
Joined: 15 Aug 2007
Posts: 2353
Lоcаtion: UK'раина, г. ЛондАн Би-Би-Си
Age: 48
Name: Сергей
после приобретения дисков по отдельности (см. страничку назад), Double Thing удалил, качество абсолютно одинаковое, у Андрюхи тоже должен быть :meloman:


Top
 Profile  
 
 
PostPosted: 14 Dec 2012 
Труъ
User avatar
Joined: 23 Nov 2012
Posts: 149
Lоcаtion: Новосибирск
Age: 39
Name: Игорь
А почему не хотите выложить рип с Double Thing?

_________________
ты не мужчина если у тебя нет штанги (и электрогитары)


Top
 Profile E-mail  
 
 
PostPosted: 15 Dec 2012 
Труъ
User avatar
Joined: 23 Nov 2012
Posts: 149
Lоcаtion: Новосибирск
Age: 39
Name: Игорь
Могу купить (рип).

_________________
ты не мужчина если у тебя нет штанги (и электрогитары)


Top
 Profile E-mail  
 
 
PostPosted: 14 Jan 2013 
парень в очёчкXаX!
User avatar
Joined: 15 Aug 2007
Posts: 2353
Lоcаtion: UK'раина, г. ЛондАн Би-Би-Си
Age: 48
Name: Сергей
не выдержал, и поэкспериментировал с моим любимым треком, снял звук с Мавзалея :nunu: в самом высоком каче' :meloman:
Princess in Disguise (32 bit (*float) / 192 kHz)
Image


Top
 Profile  
 
 
PostPosted: 14 Jan 2013 
Хиппей (support team)
User avatar
Joined: 30 Jul 2007
Posts: 113091
Lоcаtion: Киев (Kyiv, UA)
Age: 46
Name: Andrey
Ай, у меня явно он всё равно как мп3 будет на компе звучать :oops:


Тама по поводу лося с чего-то там спрашивали. Если качал, то... ну да, когда-нибудь найду и перезалью. Бесплатно :shok:
Теперь уж точно еще более не спешим :dance:

_________________


Top
 Profile E-mail  
 
 
PostPosted: 13 Feb 2013 
парень в очёчкXаX!
User avatar
Joined: 15 Aug 2007
Posts: 2353
Lоcаtion: UK'раина, г. ЛондАн Би-Би-Си
Age: 48
Name: Сергей
Double Thing таки появился в продаже опять, давно его не выставляли, время от времени слежу за ним, в надежде купить за пару бакофф!

ы-ы-ы наивный чукоЦЦкий юноШШа :nunu:


Top
 Profile  
 
 
PostPosted: 04 Nov 2013 
\m/ 80 см сала \m/
User avatar
Joined: 12 Mar 2012
Posts: 2590
Age: 26
Name: Nick
Image

Faithful Breath (DE) - 1984 - Gold 'n' Glory
1994 Mausoleum Classix #704155.2

lossless by hexonut (rutracker.org)

Narod

_________________
1990 AUROPHON BRAINSTORM (Germany) - lossless
1994 MAUSOLEUM CLASSIX (Belgium-Germany) - lossless
1998 VA - GRIM HARVEST - Complete Metal Massacre Volumes I-XII


Top
 Profile  
 
 
PostPosted: 04 Nov 2013 
Почётный металлург
User avatar
Joined: 15 Sep 2007
Posts: 4358
Lоcаtion: Хабаровск
Age: 59
Name: чуть выше
:thanx: :thanx: :thanx:

_________________
Коль будешь людей ты ослами честить,
тебе человеком меж них не прослыть!
(Саади, персидский поэт, 13в.)


Top
 Profile  
 
 
PostPosted: 04 Nov 2013 
Хиппей (support team)
User avatar
Joined: 30 Jul 2007
Posts: 113091
Lоcаtion: Киев (Kyiv, UA)
Age: 46
Name: Andrey
:thanx:

mirror: Narod l M-Cloud

scans
ImageImage
ImageImageImage

log
Exact Audio Copy V1.0 beta 3 from 29. August 2011

EAC extraction logfile from 20. June 2013, 22:28

Faithful Breath / Gold'n'Glory (Classix Series)

Used drive : LITE-ON DVDRW LH-20A1L Adapter: 7 ID: 0

Read mode : Secure
Utilize accurate stream : Yes
Defeat audio cache : Yes
Make use of C2 pointers : No

Read offset correction : 6
Overread into Lead-In and Lead-Out : No
Fill up missing offset samples with silence : Yes
Delete leading and trailing silent blocks : No
Null samples used in CRC calculations : Yes
Used interface : Installed external ASPI interface

Used output format : Internal WAV Routines
Sample format : 44.100 Hz; 16 Bit; Stereo


TOC of the extracted CD

Track | Start | Length | Start sector | End sector
---------------------------------------------------------
1 | 0:00.00 | 3:51.01 | 0 | 17325
2 | 3:51.01 | 3:24.20 | 17326 | 32645
3 | 7:15.21 | 3:32.63 | 32646 | 48608
4 | 10:48.09 | 5:01.52 | 48609 | 71235
5 | 15:49.61 | 4:24.42 | 71236 | 91077
6 | 20:14.28 | 3:46.47 | 91078 | 108074
7 | 24:01.00 | 4:20.00 | 108075 | 127574
8 | 28:21.00 | 2:39.31 | 127575 | 139530


Range status and errors

Selected range

Filename Z:\data\Seeding\Faithful Breath\1984-Gold'N'Glory\1994-Mausoleum [Germany, 704155.2, Classix Series]\Gold'n'Glory (Classix Series).wav

Peak level 85.0 %
Extraction speed 7.2 X
Range quality 100.0 %
Test CRC 41CB3F29
Copy CRC 41CB3F29
Copy OK

No errors occurred


AccurateRip summary

Track 1 not present in database
Track 2 not present in database
Track 3 not present in database
Track 4 not present in database
Track 5 not present in database
Track 6 not present in database
Track 7 not present in database
Track 8 not present in database

None of the tracks are present in the AccurateRip database

End of status report

==== Log checksum 001A5B2ECCC7FE1CC541DD45F6EF6CD34D29859859CB4C12D2267709949E22AF ====

cue
REM GENRE "Hard Rock"
REM DATE 1984
REM DISCID 53074408
REM COMMENT "ExactAudioCopy v1.0b3"
PERFORMER "Faithful Breath"
TITLE "Gold'n'Glory (Classix Series)"
FILE "Gold'n'Glory (Classix Series).flac" WAVE
TRACK 01 AUDIO
TITLE "Don't Feel Hate"
PERFORMER "Faithful Breath"
INDEX 01 00:00:00
TRACK 02 AUDIO
TITLE "King Of The Rock"
PERFORMER "Faithful Breath"
INDEX 01 03:51:01
TRACK 03 AUDIO
TITLE "Jailbreaker"
PERFORMER "Faithful Breath"
INDEX 01 07:15:21
TRACK 04 AUDIO
TITLE "A Million Hearts"
PERFORMER "Faithful Breath"
INDEX 01 10:48:09
TRACK 05 AUDIO
TITLE "Gold'n'Glory"
PERFORMER "Faithful Breath"
INDEX 01 15:49:61
TRACK 06 AUDIO
TITLE "Play The Game"
PERFORMER "Faithful Breath"
INDEX 01 20:14:28
TRACK 07 AUDIO
TITLE "Princess In Disguise"
PERFORMER "Faithful Breath"
INDEX 01 24:01:00
TRACK 08 AUDIO
TITLE "Don't Drive Me Mad"
PERFORMER "Faithful Breath"
INDEX 01 28:21:00

_________________


Top
 Profile E-mail  
 
 
PostPosted: 07 Nov 2013 
парень в очёчкXаX!
User avatar
Joined: 15 Aug 2007
Posts: 2353
Lоcаtion: UK'раина, г. ЛондАн Би-Би-Си
Age: 48
Name: Сергей
Quote:
Faithful Breath (DE) - 1984 - Gold 'n' Glory
1994 Mausoleum Classix #704155.2

йёханый-ипонскуий сок, ну и шО это за цыд? откуда он взя'? это офиц. издание или бут?
шо за дела? я буду жаловацца в "ГриинПись"

ну не было такого, еще и в 94г....Не-Бы-Ло!! ясно, не!?

:fingal:


аааа )))) тока шО увидел, ну теперь все ясно :nunu:
Image


Last edited by attax on 07 Nov 2013, edited 1 time in total.

Top
 Profile  
 
 
PostPosted: 07 Nov 2013 
Прокъмитолист
User avatar
Joined: 12 Aug 2007
Posts: 6557
Lоcаtion: Санктъ-Петербуркъ
Age: 51
Name: Олекъ
attax wrote:
шо за дела?

viewtopic.php?f=68&t=10463
:pardon:

_________________
прокъметол - это музыко, от которово есть прок (ы)


Top
 Profile  
 
 
PostPosted: 07 Nov 2013 
Рарник и трушник
User avatar
Joined: 25 Dec 2009
Posts: 8650
Lоcаtion: Москва
Age: 53
Name: Виталий
attax wrote:
ну не было такого, еще и в 94г....Не-Бы-Ло!! ясно, не!?

Эх, Серёг, Серёг! Ну что ж ты так? :benya:
Image


Top
 Profile  
 
 
PostPosted: 07 Nov 2013 
Хиппей (support team)
User avatar
Joined: 30 Jul 2007
Posts: 113091
Lоcаtion: Киев (Kyiv, UA)
Age: 46
Name: Andrey
Ага, и еще вот так :arrow: viewtopic.php?p=16547#p16547 :lloo:

_________________


Top
 Profile E-mail  
 
 
PostPosted: 07 Nov 2013 
Прокъмитолист
User avatar
Joined: 12 Aug 2007
Posts: 6557
Lоcаtion: Санктъ-Петербуркъ
Age: 51
Name: Олекъ
Scatterbrain wrote:
Ага, и еще вот так

нет, Андрюх. там про другое издание совсем речь :lloo:

_________________
прокъметол - это музыко, от которово есть прок (ы)


Top
 Profile  
 
Display posts from previous:  Sort by  
Post new topic Reply to topic  [ 465 posts ]  Go to page Previous  1 ... 7, 8, 9, 10, 11, 12, 13 ... 24  Next

All times are UTC + 3 hours


Who is online

Users browsing this forum: No registered users and 1 guest


You cannot post new topics in this forum
You cannot reply to topics in this forum
You cannot edit your posts in this forum
You cannot delete your posts in this forum
You cannot post attachments in this forum

Search for:
Яндекс.Метрика
Powered by phpBB © 2000, 2002, 2005, 2007 phpBB Group