\m/ 80's metal \m/

Информационно-аналитический форум "80 см пыли" (In Search We Trust) "У нас никто никуда не спешит"
Me For You - http://me-4u.com
It is currently 18 Jun 2019

All times are UTC + 3 hours

Spoiler
Chat - temporary registration for foreign users (please leave your application here)







Post new topic Reply to topic  [ 5 posts ] 
Author Message
 
PostPosted: 10 Feb 2017 
Генеральный thrasher
User avatar
Joined: 03 Oct 2008
Posts: 3710
Lоcаtion: Ханты-Мансийский АО
Age: 44
Name: Сергей
Image

Year:2007
Style:Power/Thrash Metal
Country:Germany
Archive:Flac+Cue+Log+Scans
Source:my CD
Size:336Mb
Label:Self-Release

Tracklist:
01. Haunting Solution 03:23
02. Quite Alone 05:43
03. Witchery of Fire 04:39
04. Hospital Brutality 04:24
05. Raped 05:25
06. Face To The Wall 03:28
07. Poser Hunt 04:10
08. Mask Of Metal 05:00
09. The World's New Chapter 03:48
10. Fire Power 07:22

"Cue"
REM GENRE "Power/Thrash Metal"
REM DATE 2007
REM DISCID 780B1A0A
REM COMMENT "ExactAudioCopy v1.1"
PERFORMER "First Aid"
TITLE "Infection"
FILE "First Aid - Infection.flac" WAVE
TRACK 01 AUDIO
TITLE "Haunting Solution"
PERFORMER "First Aid"
INDEX 01 00:00:00
TRACK 02 AUDIO
TITLE "Quite Alone"
PERFORMER "First Aid"
INDEX 00 03:20:69
INDEX 01 03:22:69
TRACK 03 AUDIO
TITLE "Witchery Of Fire"
PERFORMER "First Aid"
INDEX 00 09:04:17
INDEX 01 09:06:17
TRACK 04 AUDIO
TITLE "Hospital Brutality"
PERFORMER "First Aid"
INDEX 00 13:43:51
INDEX 01 13:45:51
TRACK 05 AUDIO
TITLE "Raped"
PERFORMER "First Aid"
INDEX 00 18:07:44
INDEX 01 18:09:44
TRACK 06 AUDIO
TITLE "Face To The Wall"
PERFORMER "First Aid"
INDEX 00 23:32:45
INDEX 01 23:34:45
TRACK 07 AUDIO
TITLE "Poser Hunt"
PERFORMER "First Aid"
INDEX 00 27:00:53
INDEX 01 27:02:53
TRACK 08 AUDIO
TITLE "Mask Of Metal"
PERFORMER "First Aid"
INDEX 00 31:10:33
INDEX 01 31:12:33
TRACK 09 AUDIO
TITLE "The World's New Chapter"
PERFORMER "First Aid"
INDEX 00 36:10:37
INDEX 01 36:12:37
TRACK 10 AUDIO
TITLE "Fire Power"
PERFORMER "First Aid"
INDEX 00 39:58:60
INDEX 01 40:00:60

"Log"
Exact Audio Copy V1.1 from 23. June 2015

Отчёт EAC об извлечении, выполненном 9. февраля 2017, 13:54

First Aid / Infection

Дисковод: HL-DT-STDVDRAM GTA0N Adapter: 1 ID: 0

Режим чтения : Достоверность
Использование точного потока : Да
Отключение кэша аудио : Да
Использование указателей C2 : Нет

Коррекция смещения при чтении : 102
Способность читать области Lead-in и Lead-out : Нет
Заполнение пропущенных сэмплов тишиной : Да
Удаление блоков с тишиной в начале и конце : Нет
При вычислениях CRC использовались нулевые сэмплы : Да
Интерфейс : Встроенный Win32-интерфейс для Win NT/2000

Выходной формат : Пользовательский кодировщик
Выбранный битрейт : 768 kBit/s
Качество : Высокий
Добавление ID3-тега : Нет
Утилита сжатия : C:\Program Files (x86)\Exact Audio Copy\FLAC\FLAC.EXE
Дополнительные параметры : -6 -V -T "ARTIST=%artist%" -T "TITLE=%title%" -T "ALBUM=%albumtitle%" -T "DATE=%year%" -T "TRACKNUMBER=%tracknr%" -T "GENRE=%genre%" -T "COMMENT=%comment%" -T "BAND=%albuminterpret%" -T "ALBUMARTIST=%albuminterpret%" -T "COMPOSER=%composer%" %haslyrics%--tag-from-file=LYRICS="%lyricsfile%"%haslyrics% -T "DISCNUMBER=%cdnumber%" -T "TOTALDISCS=%totalcds%" -T "TOTALTRACKS=%numtracks%" %hascover%--picture="%coverfile%"%hascover% %source% -o %dest%


TOC извлечённого CD

Трек | Старт | Длительность | Начальный сектор | Конечный сектор
---------------------------------------------------------------------
1 | 0:00.00 | 3:22.69 | 0 | 15218
2 | 3:22.69 | 5:43.23 | 15219 | 40966
3 | 9:06.17 | 4:39.34 | 40967 | 61925
4 | 13:45.51 | 4:23.68 | 61926 | 81718
5 | 18:09.44 | 5:25.01 | 81719 | 106094
6 | 23:34.45 | 3:28.08 | 106095 | 121702
7 | 27:02.53 | 4:09.55 | 121703 | 140432
8 | 31:12.33 | 5:00.04 | 140433 | 162936
9 | 36:12.37 | 3:48.23 | 162937 | 180059
10 | 40:00.60 | 7:21.57 | 180060 | 213191


Характеристики диапазона извлечения и сообщения об ошибках

Выбранный диапазон

Имя файла C:\Users\магазин\Music\First Aid - Infection.wav

Пиковый уровень 98.7 %
Скорость извлечения 4.0 X
Качество диапазона 99.9 %
CRC теста E0F585B3
CRC копии E0F585B3
Копирование... OK

Ошибок не произошло


AccurateRip: сводка

Трек 1 : извлечено точно (доверие 1) [8449373C] (AR v2)
Трек 2 : извлечено точно (доверие 1) [C8E2BD98] (AR v2)
Трек 3 : извлечено точно (доверие 1) [D23D9CF4] (AR v2)
Трек 4 : извлечено точно (доверие 1) [49C06422] (AR v2)
Трек 5 : извлечено точно (доверие 1) [6CAFFE45] (AR v2)
Трек 6 : извлечено точно (доверие 1) [A48107F7] (AR v2)
Трек 7 : извлечено точно (доверие 1) [08B73D23] (AR v2)
Трек 8 : извлечено точно (доверие 1) [743D9B9C] (AR v2)
Трек 9 : извлечено точно (доверие 1) [D28DE681] (AR v2)
Трек 10 : извлечено точно (доверие 1) [73E74591] (AR v2)

Все треки извлечены точно

Конец отчёта

---- CUETools DB Plugin V2.1.6

[CTDB TOCID: papfaM2J5Texmy0R8CoOpd1AOLs-] found
Submit result: already submitted
Track | CTDB Status
1 | (3/3) Accurately ripped
2 | (3/3) Accurately ripped
3 | (3/3) Accurately ripped
4 | (3/3) Accurately ripped
5 | (3/3) Accurately ripped
6 | (3/3) Accurately ripped
7 | (3/3) Accurately ripped
8 | (3/3) Accurately ripped
9 | (3/3) Accurately ripped
10 | (3/3) Accurately ripped


Infection


Top
 Profile  
 
 
PostPosted: 10 Feb 2017 
консэрваторъ
User avatar
Joined: 11 Aug 2007
Posts: 16972
Lоcаtion: Псков
Age: 45
Name: Сергей
Ураааааааааааааа!.. Наконец-то качество!!! Спасибо огромное!!! :thanx: :thanx: :thanx:

_________________
THRASH 'EM ALL


Top
 Profile E-mail  
 
 
PostPosted: 10 Feb 2017 
Partisanen - nicht kapitulieren!!
User avatar
Joined: 25 Dec 2011
Posts: 7011
Lоcаtion: партизанские леса
Age: 46
Name: Владимир
ага! спасибобл! :lob:

_________________
One more beer and Heavy Metal and I'm just fine!
старовер, куле... слово "блин" - до сих пор через Ъ говорю


Top
 Profile E-mail  
 
 
PostPosted: 10 Feb 2017 
Partisanen - nicht kapitulieren!!
User avatar
Joined: 25 Dec 2011
Posts: 7011
Lоcаtion: партизанские леса
Age: 46
Name: Владимир
зерцАло

_________________
One more beer and Heavy Metal and I'm just fine!
старовер, куле... слово "блин" - до сих пор через Ъ говорю


Top
 Profile E-mail  
 
 
PostPosted: 11 Feb 2017 
Прокъмитолист
User avatar
Joined: 12 Aug 2007
Posts: 6557
Lоcаtion: Санктъ-Петербуркъ
Age: 51
Name: Олекъ
:thanx:

_________________
прокъметол - это музыко, от которово есть прок (ы)


Top
 Profile  
 
Display posts from previous:  Sort by  
Post new topic Reply to topic  [ 5 posts ] 

All times are UTC + 3 hours


Who is online

Users browsing this forum: No registered users and 2 guests


You cannot post new topics in this forum
You cannot reply to topics in this forum
You cannot edit your posts in this forum
You cannot delete your posts in this forum
You cannot post attachments in this forum

Search for:
Яндекс.Метрика
Powered by phpBB © 2000, 2002, 2005, 2007 phpBB Group