\m/ 80's metal \m/

Информационно-аналитический форум "80 см пыли" (In Search We Trust) "У нас никто никуда не спешит"
Me For You - http://me-4u.com
It is currently 25 Jun 2019

All times are UTC + 3 hours

Spoiler
Chat - temporary registration for foreign users (please leave your application here)







Post new topic Reply to topic  [ 6 posts ] 
Author Message
 
PostPosted: 08 Dec 2016 
Генеральный thrasher
User avatar
Joined: 03 Oct 2008
Posts: 3711
Lоcаtion: Ханты-Мансийский АО
Age: 44
Name: Сергей
Image

Year:2014
Style:Thrash Metal
Country:Germany
Archive:Flac+Cue+Log+Scans
Source:my CD
Size:307Mb
Label:Iron Shield Records

Tracklist:
01. Horror Of War 04:39
02. Chained To Die 02:40
03. Lifetime Torment 03:47
04. Fill The Void 05:10
05. Hit By Shit 03:17
06. Suicide Moshpit 03:41
07. Dead Again 04:43
08. Grimace Of Lies 03:16
09. Missing In Action 03:29
10. Rise Of The Dead 04:51

"Cue"
REM GENRE "Power/Thrash Metal"
REM DATE 2014
REM DISCID 9809450A
REM COMMENT "ExactAudioCopy v1.1"
PERFORMER "First Aid"
TITLE "Nursed"
FILE "First Aid - Nursed.flac" WAVE
TRACK 01 AUDIO
TITLE "Horror Of War"
PERFORMER "First Aid"
INDEX 01 00:00:00
TRACK 02 AUDIO
TITLE "Chained To Die"
PERFORMER "First Aid"
INDEX 00 04:38:37
INDEX 01 04:38:38
TRACK 03 AUDIO
TITLE "Lifetime Torment"
PERFORMER "First Aid"
INDEX 00 07:18:13
INDEX 01 07:18:15
TRACK 04 AUDIO
TITLE "Fill The Void"
PERFORMER "First Aid"
INDEX 00 11:05:51
INDEX 01 11:05:52
TRACK 05 AUDIO
TITLE "Hit By Shit"
PERFORMER "First Aid"
INDEX 00 16:15:25
INDEX 01 16:15:27
TRACK 06 AUDIO
TITLE "Suicide Moshpit"
PERFORMER "First Aid"
INDEX 00 19:32:02
INDEX 01 19:32:03
TRACK 07 AUDIO
TITLE "Dead Again"
PERFORMER "First Aid"
INDEX 00 23:14:25
INDEX 01 23:14:26
TRACK 08 AUDIO
TITLE "Grimace Of Lies"
PERFORMER "First Aid"
INDEX 00 27:57:25
INDEX 01 27:57:26
TRACK 09 AUDIO
TITLE "Missing In Action"
PERFORMER "First Aid"
INDEX 00 31:13:56
INDEX 01 31:13:63
TRACK 10 AUDIO
TITLE "Rise Of The Dead"
PERFORMER "First Aid"
INDEX 00 34:42:57
INDEX 01 34:42:58

"Log"
Exact Audio Copy V1.1 from 23. June 2015

Отчёт EAC об извлечении, выполненном 8. декабря 2016, 13:19

First Aid / Nursed

Дисковод: HL-DT-STDVDRAM GTA0N Adapter: 1 ID: 0

Режим чтения : Достоверность
Использование точного потока : Да
Отключение кэша аудио : Да
Использование указателей C2 : Нет

Коррекция смещения при чтении : 102
Способность читать области Lead-in и Lead-out : Нет
Заполнение пропущенных сэмплов тишиной : Да
Удаление блоков с тишиной в начале и конце : Нет
При вычислениях CRC использовались нулевые сэмплы : Да
Интерфейс : Встроенный Win32-интерфейс для Win NT/2000

Выходной формат : Пользовательский кодировщик
Выбранный битрейт : 768 kBit/s
Качество : Высокий
Добавление ID3-тега : Нет
Утилита сжатия : C:\Program Files (x86)\Exact Audio Copy\FLAC\FLAC.EXE
Дополнительные параметры : -6 -V -T "ARTIST=%artist%" -T "TITLE=%title%" -T "ALBUM=%albumtitle%" -T "DATE=%year%" -T "TRACKNUMBER=%tracknr%" -T "GENRE=%genre%" -T "COMMENT=%comment%" -T "BAND=%albuminterpret%" -T "ALBUMARTIST=%albuminterpret%" -T "COMPOSER=%composer%" %haslyrics%--tag-from-file=LYRICS="%lyricsfile%"%haslyrics% -T "DISCNUMBER=%cdnumber%" -T "TOTALDISCS=%totalcds%" -T "TOTALTRACKS=%numtracks%" %hascover%--picture="%coverfile%"%hascover% %source% -o %dest%


TOC извлечённого CD

Трек | Старт | Длительность | Начальный сектор | Конечный сектор
---------------------------------------------------------------------
1 | 0:00.00 | 4:38.38 | 0 | 20887
2 | 4:38.38 | 2:39.52 | 20888 | 32864
3 | 7:18.15 | 3:47.37 | 32865 | 49926
4 | 11:05.52 | 5:09.50 | 49927 | 73151
5 | 16:15.27 | 3:16.51 | 73152 | 87902
6 | 19:32.03 | 3:42.23 | 87903 | 104575
7 | 23:14.26 | 4:43.00 | 104576 | 125800
8 | 27:57.26 | 3:16.37 | 125801 | 140537
9 | 31:13.63 | 3:28.70 | 140538 | 156207
10 | 34:42.58 | 4:51.13 | 156208 | 178045


Характеристики диапазона извлечения и сообщения об ошибках

Выбранный диапазон

Имя файла C:\Users\магазин\Music\First Aid - Nursed.wav

Пиковый уровень 98.8 %
Скорость извлечения 3.8 X
Качество диапазона 100.0 %
CRC копии 5DF085EB
Копирование... OK

Ошибок не произошло


AccurateRip: сводка

Трек 1 : извлечено точно (доверие 2) [14FC3264] (AR v2)
Трек 2 : извлечено точно (доверие 2) [B27344A1] (AR v2)
Трек 3 : извлечено точно (доверие 2) [99FFA3CC] (AR v2)
Трек 4 : извлечено точно (доверие 2) [D9077B4B] (AR v2)
Трек 5 : извлечено точно (доверие 2) [79BF13AE] (AR v2)
Трек 6 : извлечено точно (доверие 2) [28348B32] (AR v2)
Трек 7 : извлечено точно (доверие 2) [1429D195] (AR v2)
Трек 8 : извлечено точно (доверие 2) [B83902AF] (AR v2)
Трек 9 : извлечено точно (доверие 2) [6F5003DF] (AR v2)
Трек 10 : извлечено точно (доверие 2) [66B061FE] (AR v2)

Все треки извлечены точно

Конец отчёта

---- CUETools DB Plugin V2.1.6

[CTDB TOCID: u3DnPGp0.sf6jE._Y1kEU2oMxqo-] found
Submit result: u3DnPGp0.sf6jE._Y1kEU2oMxqo- has been confirmed
Track | CTDB Status
1 | (1/1) Accurately ripped
2 | (1/1) Accurately ripped
3 | (1/1) Accurately ripped
4 | (1/1) Accurately ripped
5 | (1/1) Accurately ripped
6 | (1/1) Accurately ripped
7 | (1/1) Accurately ripped
8 | (1/1) Accurately ripped
9 | (1/1) Accurately ripped
10 | (1/1) Accurately ripped


Nursed


Top
 Profile  
 
 
PostPosted: 08 Dec 2016 
Partisanen - nicht kapitulieren!!
User avatar
Joined: 25 Dec 2011
Posts: 7019
Lоcаtion: партизанские леса
Age: 46
Name: Владимир
:thanx:

_________________
One more beer and Heavy Metal and I'm just fine!
старовер, куле... слово "блин" - до сих пор через Ъ говорю


Top
 Profile E-mail  
 
 
PostPosted: 08 Dec 2016 
Прокъмитолист
User avatar
Joined: 12 Aug 2007
Posts: 6565
Lоcаtion: Санктъ-Петербуркъ
Age: 51
Name: Олекъ
:thanx:

_________________
прокъметол - это музыко, от которово есть прок (ы)


Top
 Profile  
 
 
PostPosted: 08 Dec 2016 
Доктор энтомологии
User avatar
Joined: 22 Jan 2009
Posts: 9776
Lоcаtion: Даугавпилс
Age: 44
Name: Алексей
Клёвая лопата у медсестры! :lob:


Top
 Profile  
 
 
PostPosted: 08 Dec 2016 
консэрваторъ
User avatar
Joined: 11 Aug 2007
Posts: 16999
Lоcаtion: Псков
Age: 45
Name: Сергей
Дождался таки АСаныч лосяша... :thanx:
:arrov: viewtopic.php?p=272963#p272963

_________________
THRASH 'EM ALL


Top
 Profile E-mail  
 
 
PostPosted: 08 Dec 2016 
Partisanen - nicht kapitulieren!!
User avatar
Joined: 25 Dec 2011
Posts: 7019
Lоcаtion: партизанские леса
Age: 46
Name: Владимир
зерцАло

_________________
One more beer and Heavy Metal and I'm just fine!
старовер, куле... слово "блин" - до сих пор через Ъ говорю


Top
 Profile E-mail  
 
Display posts from previous:  Sort by  
Post new topic Reply to topic  [ 6 posts ] 

All times are UTC + 3 hours


Who is online

Users browsing this forum: No registered users and 1 guest


You cannot post new topics in this forum
You cannot reply to topics in this forum
You cannot edit your posts in this forum
You cannot delete your posts in this forum
You cannot post attachments in this forum

Search for:
Яндекс.Метрика
Powered by phpBB © 2000, 2002, 2005, 2007 phpBB Group