\m/ 80's metal \m/

Информационно-аналитический форум "80 см пыли" (In Search We Trust) "У нас никто никуда не спешит"
Me For You - http://me-4u.com
It is currently 24 Apr 2019

All times are UTC + 3 hours

Spoiler
Chat - temporary registration for foreign users (please leave your application here)







Post new topic Reply to topic  [ 5 posts ] 
Author Message
 
PostPosted: 12 Oct 2015 
Генеральный thrasher
User avatar
Joined: 03 Oct 2008
Posts: 3695
Lоcаtion: Ханты-Мансийский АО
Age: 44
Name: Сергей
Image

Year: 1992 (2011 Re-Issue)
Style:Power/Thrash Metal
Country:U.S.A.
Archive:Flac+Cue+Log+Scans
Size:552Mb
Source:my CD
Label:Divebomb Records

Line-Up:
James Randel - vocals
Jeff Scott - guitars
Rev. Jones - bass
Greg Scott - drums

Tracklist:
01. Coming Of The Storm 03:11
02. The Inner Circle 03:35
03. Stranger Than Fiction 03:29
04. G-13 (Devoid of Thought) 01:12
05. Mein Madness 03:55
06. Time and Time Again 03:29
07. Digitator 04:24
08. Between the Lies 02:36
09. The Last Word 03:27
10. The Promise 04:36
11. Dementia by Design (MMXI version) 03:38
Dementia by Design (Demo - 1989)
12. Between the Lies 02:41
13. Dementia by Design 03:30
14. Digitator 04:25
15. Mein Madness 03:51
16. The Promise 04:36
Forté (Demo - 1991)
17. Stranger Than Fiction 03:39
18. The Inner Circle 03:56
19. Devoid of Thought 00:44
20. The Coming of the Storm 03:26
21. The Last Word 03:33

"Cue"
REM GENRE "Power/Thrash Metal"
REM DATE 2011
REM DISCID 37118416
REM COMMENT "ExactAudioCopy v0.99pb5"
PERFORMER "Forte"
TITLE "Stranger Than Fiction (Deluxe Edition)"
FILE "Forte - Stranger Than Fiction (Deluxe Edition).flac" WAVE
TRACK 01 AUDIO
TITLE "Coming Of The Storm"
PERFORMER "Forte"
FLAGS DCP
INDEX 01 00:00:00
TRACK 02 AUDIO
TITLE "The Inner Circle"
PERFORMER "Forte"
FLAGS DCP
INDEX 01 03:11:15
TRACK 03 AUDIO
TITLE "Stranger Than Fiction"
PERFORMER "Forte"
FLAGS DCP
INDEX 01 06:47:07
TRACK 04 AUDIO
TITLE "G-13 (Devoid Of Thought) "
PERFORMER "Forte"
FLAGS DCP
INDEX 01 10:16:70
TRACK 05 AUDIO
TITLE "Mein Madness"
PERFORMER "Forte"
FLAGS DCP
INDEX 01 11:29:30
TRACK 06 AUDIO
TITLE "Time And Time Again"
PERFORMER "Forte"
FLAGS DCP
INDEX 01 15:24:40
TRACK 07 AUDIO
TITLE "Digitator"
PERFORMER "Forte"
FLAGS DCP
INDEX 01 18:54:25
TRACK 08 AUDIO
TITLE "Between The Lies"
PERFORMER "Forte"
FLAGS DCP
INDEX 01 23:19:07
TRACK 09 AUDIO
TITLE "The Last Word"
PERFORMER "Forte"
FLAGS DCP
INDEX 01 25:55:15
TRACK 10 AUDIO
TITLE "The Promise"
PERFORMER "Forte"
FLAGS DCP
INDEX 01 29:22:15
TRACK 11 AUDIO
TITLE "Dementia by Design (MMXI version)"
PERFORMER "Forte"
FLAGS DCP
INDEX 01 33:58:32
TRACK 12 AUDIO
TITLE "Between The Lies"
PERFORMER "Forte"
FLAGS DCP
INDEX 01 37:36:71
TRACK 13 AUDIO
TITLE "Dementia By Design"
PERFORMER "Forte"
FLAGS DCP
INDEX 01 40:17:72
TRACK 14 AUDIO
TITLE "Digitator"
PERFORMER "Forte"
FLAGS DCP
INDEX 01 43:48:69
TRACK 15 AUDIO
TITLE "Mein Madness"
PERFORMER "Forte"
FLAGS DCP
INDEX 01 48:14:51
TRACK 16 AUDIO
TITLE "The Promise"
PERFORMER "Forte"
FLAGS DCP
INDEX 01 52:06:27
TRACK 17 AUDIO
TITLE "Stranger Than Fiction"
PERFORMER "Forte"
FLAGS DCP
INDEX 01 56:42:69
TRACK 18 AUDIO
TITLE "The Inner Circle"
PERFORMER "Forte"
FLAGS DCP
INDEX 01 60:22:41
TRACK 19 AUDIO
TITLE "Devoid Of Thought"
PERFORMER "Forte"
FLAGS DCP
INDEX 01 64:19:24
TRACK 20 AUDIO
TITLE "The Coming Of The Storm"
PERFORMER "Forte"
FLAGS DCP
INDEX 01 65:03:57
TRACK 21 AUDIO
TITLE "The Last Word"
PERFORMER "Forte"
FLAGS DCP
INDEX 01 68:30:32

"Log"
Exact Audio Copy V0.99 prebeta 5 from 4. May 2009

Отчёт EAC об извлечении, выполненном 18. сентября 2015, 13:05

Forte / Stranger Than Fiction (Deluxe Edition)

Дисковод: MATSHITADVD-RAM UJ8A0AS Adapter: 0 ID: 1

Режим чтения : Достоверность
Использование точного потока : Да
Отключение кэша аудио : Да
Использование указателей C2 : Нет

Коррекция смещения при чтении : 102
Способность читать области Lead-in и Lead-out : Нет
Заполнение пропущенных сэмплов тишиной : Да
Удаление блоков с тишиной в начале и конце : Нет
При вычислениях CRC использовались нулевые сэмплы : Да
Интерфейс : Встроенный Win32-интерфейс для Win NT/2000

Выходной формат : Пользовательский кодировщик
Выбранный битрейт : 1024 kBit/s
Качество : Высокий
Добавление ID3-тэга : Нет
Утилита сжатия : C:\Program Files\Exact Audio Copy\FLAC\FLAC.EXE
Дополнительные параметры : -6 -V -T "ARTIST=%a" -T "TITLE=%t" -T "ALBUM=%g" -T "DATE=%y" -T "TRACKNUMBER=%n" -T "GENRE=%m" -T "COMMENT=%e" %s -o %d


TOC извлечённого CD

Трек | Старт | Длительность | Начальный сектор | Конечный сектор
---------------------------------------------------------------------
1 | 0:00.00 | 3:11.15 | 0 | 14339
2 | 3:11.15 | 3:35.67 | 14340 | 30531
3 | 6:47.07 | 3:29.63 | 30532 | 46269
4 | 10:16.70 | 1:12.35 | 46270 | 51704
5 | 11:29.30 | 3:55.10 | 51705 | 69339
6 | 15:24.40 | 3:29.60 | 69340 | 85074
7 | 18:54.25 | 4:24.57 | 85075 | 104931
8 | 23:19.07 | 2:36.08 | 104932 | 116639
9 | 25:55.15 | 3:27.00 | 116640 | 132164
10 | 29:22.15 | 4:36.17 | 132165 | 152881
11 | 33:58.32 | 3:38.39 | 152882 | 169270
12 | 37:36.71 | 2:41.01 | 169271 | 181346
13 | 40:17.72 | 3:30.72 | 181347 | 197168
14 | 43:48.69 | 4:25.57 | 197169 | 217100
15 | 48:14.51 | 3:51.51 | 217101 | 234476
16 | 52:06.27 | 4:36.42 | 234477 | 255218
17 | 56:42.69 | 3:39.47 | 255219 | 271690
18 | 60:22.41 | 3:56.58 | 271691 | 289448
19 | 64:19.24 | 0:44.33 | 289449 | 292781
20 | 65:03.57 | 3:26.50 | 292782 | 308281
21 | 68:30.32 | 3:33.66 | 308282 | 324322
22 | 74:36.23 | 0:08.00 | 335723 | 336322


Характеристики диапазона извлечения и сообщения об ошибках

Выбранный диапазон

Имя файла C:\Users\эксперт\Music\Forte - Stranger Than Fiction (Deluxe Edition).wav

Пиковый уровень 100.0 %
Качество диапазона 100.0 %
CRC копии 9E18E67D
Копирование... OK

Ошибок не произошло


AccurateRip: сводка

Трек 1 нет в базе данных
Трек 2 нет в базе данных
Трек 3 нет в базе данных
Трек 4 нет в базе данных
Трек 5 нет в базе данных
Трек 6 нет в базе данных
Трек 7 нет в базе данных
Трек 8 нет в базе данных
Трек 9 нет в базе данных
Трек 10 нет в базе данных
Трек 11 нет в базе данных
Трек 12 нет в базе данных
Трек 13 нет в базе данных
Трек 14 нет в базе данных
Трек 15 нет в базе данных
Трек 16 нет в базе данных
Трек 17 нет в базе данных
Трек 18 нет в базе данных
Трек 19 нет в базе данных
Трек 20 нет в базе данных
Трек 21 нет в базе данных

Ни одного трека нет в базе AccurateRip

Конец отчёта


Stranger Than Fiction


Top
 Profile  
 
 
PostPosted: 12 Oct 2015 
Прокъмитолист
User avatar
Joined: 12 Aug 2007
Posts: 6545
Lоcаtion: Санктъ-Петербуркъ
Age: 51
Name: Олекъ
:thanx:

_________________
прокъметол - это музыко, от которово есть прок (ы)


Top
 Profile  
 
 
PostPosted: 12 Oct 2015 
Генеральный thrasher
User avatar
Joined: 03 Oct 2008
Posts: 3695
Lоcаtion: Ханты-Мансийский АО
Age: 44
Name: Сергей
Помнится,Олег,забирал с MMT твои рипы Forte.Вроде этого альбома в оригинале у тебя не было?


Top
 Profile  
 
 
PostPosted: 12 Oct 2015 
спирт 100%
User avatar
Joined: 22 Sep 2008
Posts: 4396
Age: 47
Name: Саня
Спасибо!


Top
 Profile  
 
 
PostPosted: 12 Oct 2015 
Прокъмитолист
User avatar
Joined: 12 Aug 2007
Posts: 6545
Lоcаtion: Санктъ-Петербуркъ
Age: 51
Name: Олекъ
thorbeorn wrote:
Вроде этого альбома в оригинале у тебя не было?

не было. так и не дошли руки всё собрать. так что спасибо за переиздание, Серёг :true:

_________________
прокъметол - это музыко, от которово есть прок (ы)


Top
 Profile  
 
Display posts from previous:  Sort by  
Post new topic Reply to topic  [ 5 posts ] 

All times are UTC + 3 hours


Who is online

Users browsing this forum: No registered users and 1 guest


You cannot post new topics in this forum
You cannot reply to topics in this forum
You cannot edit your posts in this forum
You cannot delete your posts in this forum
You cannot post attachments in this forum

Search for:
Яндекс.Метрика
Powered by phpBB © 2000, 2002, 2005, 2007 phpBB Group