\m/ 80's metal \m/

Информационно-аналитический форум "80 см пыли" (In Search We Trust) "У нас никто никуда не спешит"
Me For You - http://me-4u.com
It is currently 25 Jun 2019

All times are UTC + 3 hours

Spoiler
Chat - temporary registration for foreign users (please leave your application here)







Post new topic Reply to topic  [ 9 posts ] 
Author Message
 
PostPosted: 23 May 2015 
Работнечег
User avatar
Joined: 28 Aug 2007
Posts: 5887
Lоcаtion: г. Москва
Age: 30
Name: Дима
Image
Country: Brazil
Style: Thrash Metal
Format: Flac + Cue + Log + Covers
Size: 97 Mb
Label: Dies Irae Records

Line-Up:
Victor Whipstriker - Bass
Victor Poisonhell - Guitars
Leo Witchcaptor - Guitars, Vocals
Pedro Skullkrosher - Drums


Tracklist:
1. Doctrine Sickness 02:31
2. Hatebreed 02:43
3. Captivity of Souls 03:30
4. Bizarre Sex Machine 03:12
5. Eternal Suffering of Flesh 02:27

LOG
Exact Audio Copy V0.99 prebeta 5 from 4. May 2009

EAC extraction logfile from 23. May 2015, 15:30

Farscape / Doctrine Sickness (Demo)

Used drive : PIONEER DVD-RW DVR-221 Adapter: 2 ID: 1

Read mode : Secure
Utilize accurate stream : Yes
Defeat audio cache : Yes
Make use of C2 pointers : No

Read offset correction : 6
Overread into Lead-In and Lead-Out : No
Fill up missing offset samples with silence : Yes
Delete leading and trailing silent blocks : No
Null samples used in CRC calculations : Yes
Used interface : Native Win32 interface for Win NT & 2000

Used output format : User Defined Encoder
Selected bitrate : 32 kBit/s
Quality : High
Add ID3 tag : No
Command line compressor : C:\Program Files\Exact Audio Copy\Flac\flac.exe
Additional command line options : -6 -V %s


TOC of the extracted CD

Track | Start | Length | Start sector | End sector
---------------------------------------------------------
1 | 0:00.00 | 2:31.66 | 0 | 11390
2 | 2:31.66 | 2:43.16 | 11391 | 23631
3 | 5:15.07 | 3:30.23 | 23632 | 39404
4 | 8:45.30 | 3:12.65 | 39405 | 53869
5 | 11:58.20 | 2:26.40 | 53870 | 64859


Range status and errors

Selected range

Filename D:\Музыка\Lossless\Farscape - Doctrine Sickness (Demo)(2001)\Farscape - Doctrine Sickness (Demo).wav

Peak level 100.0 %
Range quality 100.0 %
Copy CRC 1AA9FF71
Copy OK

No errors occurred


AccurateRip summary

Track 1 not present in database
Track 2 not present in database
Track 3 not present in database
Track 4 not present in database
Track 5 not present in database

None of the tracks are present in the AccurateRip database

End of status report

CUE
REM GENRE "Thrash Metal"
REM DATE 2001
REM DISCID 2D036005
REM COMMENT "ExactAudioCopy v0.99pb5"
PERFORMER "Farscape"
TITLE "Doctrine Sickness (Demo)"
FILE "Farscape - Doctrine Sickness (Demo).flac" WAVE
TRACK 01 AUDIO
TITLE "Doctrine Sickness"
PERFORMER "Farscape"
FLAGS DCP
INDEX 01 00:00:00
TRACK 02 AUDIO
TITLE "Hatebreed"
PERFORMER "Farscape"
FLAGS DCP
INDEX 00 02:29:66
INDEX 01 02:31:66
TRACK 03 AUDIO
TITLE "Captivity Of Souls"
PERFORMER "Farscape"
FLAGS DCP
INDEX 00 05:13:07
INDEX 01 05:15:07
TRACK 04 AUDIO
TITLE "Bizarre Sex Machine"
PERFORMER "Farscape"
FLAGS DCP
INDEX 00 08:43:30
INDEX 01 08:45:30
TRACK 05 AUDIO
TITLE "Eternal Suffering Of Flesh"
PERFORMER "Farscape"
FLAGS DCP
INDEX 00 11:56:20
INDEX 01 11:58:20


FLAC

Лось сделан с Cdr. Перегнано с кассеты на CDr не мной, поэтому за качество и правильность не могу отвечать, но нареканий по звуку нет! Отличный бескопромисный трэш от бразилов! :true: :true:


Top
 Profile E-mail  
 
 
PostPosted: 23 May 2015 
Дежурный по КУПу
User avatar
Joined: 17 Aug 2007
Posts: 5871
Age: 51
Name: Ге
:thanx:

_________________
http://jp-mania.ru/
http://jp-tourdates.ucoz.ru/


Top
 Profile  
 
 
PostPosted: 23 May 2015 
А может смените мне статус?..
User avatar
Joined: 02 Feb 2009
Posts: 999
Lоcаtion: из Тулы
Age: 45
Name: Максим
спасибо Дим
:true:

_________________
КМА


Top
 Profile  
 
 
PostPosted: 23 May 2015 
Прокъмитолист
User avatar
Joined: 12 Aug 2007
Posts: 6565
Lоcаtion: Санктъ-Петербуркъ
Age: 51
Name: Олекъ
:thanx:

_________________
прокъметол - это музыко, от которово есть прок (ы)


Top
 Profile  
 
 
PostPosted: 24 May 2015 
Генеральный thrasher
User avatar
Joined: 03 Oct 2008
Posts: 3711
Lоcаtion: Ханты-Мансийский АО
Age: 44
Name: Сергей
Огромное спасибо,Дим!Коллекция бразилов всё растёт!


Top
 Profile  
 
 
PostPosted: 25 May 2015 
А может смените мне статус?..
User avatar
Joined: 28 Jul 2008
Posts: 970
Lоcаtion: Украина---Днепропетровск
Age: 45
Name: Александр
:true:

_________________
Музыка в которой я растворяюсь многих угнетает......


Top
 Profile  
 
 
PostPosted: 27 May 2015 
Хиппей (support team)
User avatar
Joined: 30 Jul 2007
Posts: 113127
Lоcаtion: Киев (Kyiv, UA)
Age: 46
Name: Andrey
:thanx:

mirror: iFolder l Narod l M-Cloud

_________________


Top
 Profile E-mail  
 
 
PostPosted: 28 May 2015 
Хиппей (support team)
User avatar
Joined: 30 Jul 2007
Posts: 113127
Lоcаtion: Киев (Kyiv, UA)
Age: 46
Name: Andrey
Хорошая демка. Саркофаго-подобная и Креаторо-вокальная группка :meloman:

_________________


Top
 Profile E-mail  
 
 
PostPosted: 16 Jun 2015 
ТрэшЭрос
User avatar
Joined: 18 Jul 2011
Posts: 2303
Lоcаtion: Гулькевичи
Age: 44
Name: Александр
church, :thanx: за зверьё :true:

_________________
Thrash no trash!!!


Top
 Profile E-mail  
 
Display posts from previous:  Sort by  
Post new topic Reply to topic  [ 9 posts ] 

All times are UTC + 3 hours


Who is online

Users browsing this forum: No registered users and 1 guest


You cannot post new topics in this forum
You cannot reply to topics in this forum
You cannot edit your posts in this forum
You cannot delete your posts in this forum
You cannot post attachments in this forum

Search for:
Яндекс.Метрика
Powered by phpBB © 2000, 2002, 2005, 2007 phpBB Group