\m/ 80's metal \m/

Информационно-аналитический форум "80 см пыли" (In Search We Trust) "У нас никто никуда не спешит"
Me For You - http://me-4u.com
It is currently 19 Jun 2019

All times are UTC + 3 hours

Spoiler
Chat - temporary registration for foreign users (please leave your application here)







Post new topic Reply to topic  [ 8 posts ] 
Author Message
 
PostPosted: 12 Mar 2015 
Генеральный thrasher
User avatar
Joined: 03 Oct 2008
Posts: 3710
Lоcаtion: Ханты-Мансийский АО
Age: 44
Name: Сергей
Image

Year:1992
Style:Thrash Metal/Crossover
Country:Sweden
Audio:Flac+Cue+Log+Scans
Size:312Mb
Source:my CD
Label:Black Rose
Catalog ID:BRR 001

Line-Up:
Richard Lion - bass
Martin Brorsson - drums
Kalle Metz - vocals
Martin Olsson - guitars

Tracklist:
01. Black Rose Of Hades 02:47
02. Bitch 02:46
03. Holocaust 04:46
04. Nagasaki - 45 03:24
05. Blind Acceptance 03:32
06. World Of Lies 05:41
07. Touch Of Death 03:24
08. Raped To The Core 04:28
09. Punisher 02:37
10. Skullfuck 02:34
11. Slave 04:49

"Cue"
REM GENRE "Thrash Metal/Crossover"
REM DATE 1992
REM DISCID 9409A50B
REM COMMENT "ExactAudioCopy v0.99pb5"
PERFORMER "Flegma"
TITLE "Blind Acceptance"
FILE "Flegma - Blind Acceptance.flac" WAVE
TRACK 01 AUDIO
TITLE "Black Rose of Hades"
PERFORMER "Flegma"
INDEX 01 00:00:00
TRACK 02 AUDIO
TITLE "Bitch"
PERFORMER "Flegma"
INDEX 00 02:47:55
INDEX 01 02:49:12
TRACK 03 AUDIO
TITLE "Holocaust"
PERFORMER "Flegma"
INDEX 00 05:36:10
INDEX 01 05:37:22
TRACK 04 AUDIO
TITLE "Nagasaki - 45"
PERFORMER "Flegma"
INDEX 00 10:24:00
INDEX 01 10:25:32
TRACK 05 AUDIO
TITLE "Blind Acceptance"
PERFORMER "Flegma"
INDEX 00 13:49:67
INDEX 01 13:52:15
TRACK 06 AUDIO
TITLE "World of Lies"
PERFORMER "Flegma"
INDEX 00 17:24:25
INDEX 01 17:26:25
TRACK 07 AUDIO
TITLE "Touch of Death"
PERFORMER "Flegma"
INDEX 00 23:08:05
INDEX 01 23:08:55
TRACK 08 AUDIO
TITLE "Raped to the Core"
PERFORMER "Flegma"
INDEX 00 26:32:70
INDEX 01 26:34:22
TRACK 09 AUDIO
TITLE "Punisher"
PERFORMER "Flegma"
INDEX 00 31:03:05
INDEX 01 31:05:40
TRACK 10 AUDIO
TITLE "Skullfuck"
PERFORMER "Flegma"
INDEX 00 33:43:10
INDEX 01 33:44:32
TRACK 11 AUDIO
TITLE "Slave"
PERFORMER "Flegma"
INDEX 00 36:18:67
INDEX 01 36:20:30

"Log"
Exact Audio Copy V0.99 prebeta 5 from 4. May 2009

Отчёт EAC об извлечении, выполненном 20. июня 2013, 15:47

Flegma / Blind Acceptance

Дисковод: MATSHITADVD-RAM UJ8A0AS Adapter: 0 ID: 1

Режим чтения : Достоверность
Использование точного потока : Да
Отключение кэша аудио : Да
Использование указателей C2 : Нет

Коррекция смещения при чтении : 102
Способность читать области Lead-in и Lead-out : Нет
Заполнение пропущенных сэмплов тишиной : Да
Удаление блоков с тишиной в начале и конце : Нет
При вычислениях CRC использовались нулевые сэмплы : Да
Интерфейс : Встроенный Win32-интерфейс для Win NT/2000

Выходной формат : Пользовательский кодировщик
Выбранный битрейт : 1024 kBit/s
Качество : Высокий
Добавление ID3-тэга : Нет
Утилита сжатия : C:\Program Files\Exact Audio Copy\FLAC\FLAC.EXE
Дополнительные параметры : -6 -V -T "ARTIST=%a" -T "TITLE=%t" -T "ALBUM=%g" -T "DATE=%y" -T "TRACKNUMBER=%n" -T "GENRE=%m" -T "COMMENT=%e" %s -o %d


TOC извлечённого CD

Трек | Старт | Длительность | Начальный сектор | Конечный сектор
---------------------------------------------------------------------
1 | 0:00.00 | 2:49.12 | 0 | 12686
2 | 2:49.12 | 2:48.10 | 12687 | 25296
3 | 5:37.22 | 4:48.10 | 25297 | 46906
4 | 10:25.32 | 3:26.58 | 46907 | 62414
5 | 13:52.15 | 3:34.10 | 62415 | 78474
6 | 17:26.25 | 5:42.30 | 78475 | 104154
7 | 23:08.55 | 3:25.42 | 104155 | 119571
8 | 26:34.22 | 4:31.18 | 119572 | 139914
9 | 31:05.40 | 2:38.67 | 139915 | 151831
10 | 33:44.32 | 2:35.73 | 151832 | 163529
11 | 36:20.30 | 4:49.07 | 163530 | 185211


Характеристики диапазона извлечения и сообщения об ошибках

Выбранный диапазон

Имя файла C:\Users\эксперт\Music\Flegma - Blind Acceptance.wav

Пиковый уровень 83.9 %
Качество диапазона 100.0 %
CRC копии 7A0C9A63
Копирование... OK

Ошибок не произошло


AccurateRip: сводка

Трек 1 точное извлечение (доверие 1) [6CEE8520]
Трек 2 точное извлечение (доверие 1) [5DF25863]
Трек 3 точное извлечение (доверие 1) [6D931A4B]
Трек 4 точное извлечение (доверие 1) [7AF508E5]
Трек 5 точное извлечение (доверие 1) [E8B277BA]
Трек 6 точное извлечение (доверие 1) [025CF8AF]
Трек 7 точное извлечение (доверие 1) [901813E6]
Трек 8 точное извлечение (доверие 1) [4C622AD6]
Трек 9 точное извлечение (доверие 1) [D1CC989C]
Трек 10 точное извлечение (доверие 1) [E32BEE60]
Трек 11 точное извлечение (доверие 1) [83C3A737]

Все треки извлечены точно

Конец отчёта


Blind Acceptance

Image

Year:1994
Style:Thrash Metal/Crossover
Country:Sweden
Audio:Flac+Cue+Log+Scans
Size:290Mb
Source:my CD
Label:Black Rose
Catalog ID:BRR 002

Line-Up:
Richard Lion - bass
Martin Olsson - guitars
Lindhe - guitars
Kalle Metz - vocals
Martin Brorsson - drums

Tracklist:
01. Rotting Away 03:54
02. Crown Of Thorns 02:57
03. Drowning 04:45
04. Walk In Confusion 04:43
05. Shadow Of A Silhouette 03:07
06. Father 04:37
07. Enticed 04:08
08. As The World Watches 01:51
09. I Stole Your Love (Kiss Cover) 03:26
10. Flesh To Dust 06:08

"Cue"
REM GENRE "Thrash Metal/Crossover"
REM DATE 1994
REM DISCID 7909570A
REM COMMENT "ExactAudioCopy v0.99pb5"
PERFORMER "Flegma"
TITLE "Flesh To Dust"
FILE "Flegma - Flesh To Dust.flac" WAVE
TRACK 01 AUDIO
TITLE "Rotting Away"
PERFORMER "Flegma"
INDEX 01 00:00:00
TRACK 02 AUDIO
TITLE "Crown Of Thorns"
PERFORMER "Flegma"
INDEX 01 03:54:13
TRACK 03 AUDIO
TITLE "Drowning"
PERFORMER "Flegma"
INDEX 00 06:51:65
INDEX 01 06:53:58
TRACK 04 AUDIO
TITLE "Walk In Confusion"
PERFORMER "Flegma"
INDEX 00 11:39:05
INDEX 01 11:40:70
TRACK 05 AUDIO
TITLE "Shadow Of A Silhouette"
PERFORMER "Flegma"
INDEX 00 16:24:65
INDEX 01 16:26:65
TRACK 06 AUDIO
TITLE "Father"
PERFORMER "Flegma"
INDEX 01 19:34:55
TRACK 07 AUDIO
TITLE "Enticed"
PERFORMER "Flegma"
INDEX 01 24:12:45
TRACK 08 AUDIO
TITLE "As The World Watches"
PERFORMER "Flegma"
INDEX 01 28:21:28
TRACK 09 AUDIO
TITLE "I Stole Your Love"
PERFORMER "Flegma"
INDEX 00 30:13:13
INDEX 01 30:14:68
TRACK 10 AUDIO
TITLE "Flesh To Dust"
PERFORMER "Flegma"
INDEX 00 33:41:23
INDEX 01 33:42:58

"Log"
Exact Audio Copy V0.99 prebeta 5 from 4. May 2009

Отчёт EAC об извлечении, выполненном 23. июня 2013, 15:41

Flegma / Flesh To Dust

Дисковод: MATSHITADVD-RAM UJ8A0AS Adapter: 0 ID: 1

Режим чтения : Достоверность
Использование точного потока : Да
Отключение кэша аудио : Да
Использование указателей C2 : Нет

Коррекция смещения при чтении : 102
Способность читать области Lead-in и Lead-out : Нет
Заполнение пропущенных сэмплов тишиной : Да
Удаление блоков с тишиной в начале и конце : Нет
При вычислениях CRC использовались нулевые сэмплы : Да
Интерфейс : Встроенный Win32-интерфейс для Win NT/2000

Выходной формат : Пользовательский кодировщик
Выбранный битрейт : 1024 kBit/s
Качество : Высокий
Добавление ID3-тэга : Нет
Утилита сжатия : C:\Program Files\Exact Audio Copy\FLAC\FLAC.EXE
Дополнительные параметры : -6 -V -T "ARTIST=%a" -T "TITLE=%t" -T "ALBUM=%g" -T "DATE=%y" -T "TRACKNUMBER=%n" -T "GENRE=%m" -T "COMMENT=%e" %s -o %d


TOC извлечённого CD

Трек | Старт | Длительность | Начальный сектор | Конечный сектор
---------------------------------------------------------------------
1 | 0:00.00 | 3:54.13 | 0 | 17562
2 | 3:54.13 | 2:59.45 | 17563 | 31032
3 | 6:53.58 | 4:47.12 | 31033 | 52569
4 | 11:40.70 | 4:45.70 | 52570 | 74014
5 | 16:26.65 | 3:07.65 | 74015 | 88104
6 | 19:34.55 | 4:37.65 | 88105 | 108944
7 | 24:12.45 | 4:08.58 | 108945 | 127602
8 | 28:21.28 | 1:53.40 | 127603 | 136117
9 | 30:14.68 | 3:27.65 | 136118 | 151707
10 | 33:42.58 | 6:08.60 | 151708 | 179367


Характеристики диапазона извлечения и сообщения об ошибках

Выбранный диапазон

Имя файла C:\Users\эксперт\Music\Flegma - Flesh To Dust.wav

Пиковый уровень 97.7 %
Качество диапазона 100.0 %
CRC копии 2E8BC490
Копирование... OK

Ошибок не произошло


AccurateRip: сводка

Трек 1 точное извлечение (доверие 2) [F93703E0]
Трек 2 точное извлечение (доверие 2) [0AFD45E4]
Трек 3 точное извлечение (доверие 2) [5AFF630D]
Трек 4 точное извлечение (доверие 2) [A22AE5C3]
Трек 5 точное извлечение (доверие 2) [BE1B6071]
Трек 6 точное извлечение (доверие 2) [EDF56EB2]
Трек 7 точное извлечение (доверие 2) [881F6EC5]
Трек 8 точное извлечение (доверие 2) [773EC59E]
Трек 9 точное извлечение (доверие 2) [9DC6C81A]
Трек 10 точное извлечение (доверие 2) [43377D5D]

Все треки извлечены точно

Конец отчёта


Flesh To Dust


Top
 Profile  
 
 
PostPosted: 12 Mar 2015 
А может смените мне статус?..
User avatar
Joined: 02 Feb 2009
Posts: 999
Lоcаtion: из Тулы
Age: 45
Name: Максим
класная группа
спасибо Серег
сегодня, кстати пришло сообщение что холокросс отправили

_________________
КМА


Top
 Profile  
 
 
PostPosted: 12 Mar 2015 
Генеральный thrasher
User avatar
Joined: 03 Oct 2008
Posts: 3710
Lоcаtion: Ханты-Мансийский АО
Age: 44
Name: Сергей
Holocross - это хорошо!Бум ждать!А Flegma - классная банда,согласен с тобой.


Top
 Profile  
 
 
PostPosted: 12 Mar 2015 
А может смените мне статус?..
User avatar
Joined: 02 Feb 2009
Posts: 999
Lоcаtion: из Тулы
Age: 45
Name: Максим
по-моему у меня ты взял второй альбом?

_________________
КМА


Top
 Profile  
 
 
PostPosted: 12 Mar 2015 
Генеральный thrasher
User avatar
Joined: 03 Oct 2008
Posts: 3710
Lоcаtion: Ханты-Мансийский АО
Age: 44
Name: Сергей
Не-а!Оба брал в одном дистро.


Top
 Profile  
 
 
PostPosted: 12 Mar 2015 
А может смените мне статус?..
User avatar
Joined: 02 Feb 2009
Posts: 999
Lоcаtion: из Тулы
Age: 45
Name: Максим
ясно
наверное 50 евро отвалил, вроде первый альбом редкость?

_________________
КМА


Top
 Profile  
 
 
PostPosted: 12 Mar 2015 
Генеральный thrasher
User avatar
Joined: 03 Oct 2008
Posts: 3710
Lоcаtion: Ханты-Мансийский АО
Age: 44
Name: Сергей
Брал давно и недорого.Смотрю на дискогсе первый продают за 27 евротугриков,а я рублей за 700 брал и то сомневался.


Top
 Profile  
 
 
PostPosted: 09 May 2015 
ТрэшЭрос
User avatar
Joined: 18 Jul 2011
Posts: 2303
Lоcаtion: Гулькевичи
Age: 44
Name: Александр
thorbeorn, :thanx: за раритет! :lob:

_________________
Thrash no trash!!!


Top
 Profile E-mail  
 
Display posts from previous:  Sort by  
Post new topic Reply to topic  [ 8 posts ] 

All times are UTC + 3 hours


Who is online

Users browsing this forum: No registered users and 1 guest


You cannot post new topics in this forum
You cannot reply to topics in this forum
You cannot edit your posts in this forum
You cannot delete your posts in this forum
You cannot post attachments in this forum

Search for:
Яндекс.Метрика
Powered by phpBB © 2000, 2002, 2005, 2007 phpBB Group