\m/ 80's metal \m/

Информационно-аналитический форум "80 см пыли" (In Search We Trust) "У нас никто никуда не спешит"
Me For You - http://me-4u.com
It is currently 23 Apr 2019

All times are UTC + 3 hours

Spoiler
Chat - temporary registration for foreign users (please leave your application here)







Post new topic Reply to topic  [ 69 posts ]  Go to page Previous  1, 2, 3, 4  Next
Author Message
 
PostPosted: 05 Dec 2014 
Хиппей (support team)
User avatar
Joined: 30 Jul 2007
Posts: 111805
Lоcаtion: Киев (Kyiv, UA)
Age: 45
Name: Andrey
Furious Trauma - 1995 - Eclipse [320]

Image

    1. Hustler - 04:07
    2. Smalltalker M.F. - 02:26
    3. Chaos Within - 03:12
    4. Stop the Bastards - 02:48
    5. My Dying Time - 06:28
    6. Sacred Bond - 03:33
    7. Swallow My Conscience - 04:50
    8. Silent Forever - 03:56
    9. Subject to Surgery - 05:39
    10. Another Face in the Crowd - 05:56

    TPT: 42:55

Теперь группа решила играть Thrash/Death. Обыкновенный такой, почти примитивный. Безмелодичный. Не совсем дуболомный, но...
Во всяком случае меня альбом никак не зацепил :(

3/10

mirror: Narod l M-Cloud

_________________


Top
 Profile E-mail  
 
 
PostPosted: 05 Dec 2014 
Хиппей (support team)
User avatar
Joined: 30 Jul 2007
Posts: 111805
Lоcаtion: Киев (Kyiv, UA)
Age: 45
Name: Andrey
Furious Trauma - 1999 - Roll the Dice [320]

Image

    1. Intro - 00:36
    2. Roll the Dice - 04:43
    3. On Top of the World - 03:15
    4. Alive - 04:37
    5. The Fifth Season - 03:17
    6. Opinions - 03:04
    7. Worth to Live - 03:56
    8. Hole in My Pocket - 03:48
    9. Memory and Mind, Pt.1 - 02:38
    10. Weightless - 03:27
    11. Focus Intact - 05:53
    12. In the Tombs - 03:38
    13. Memory and Mind, Pt.2 - 02:08

    TPT:45:00

Не ожидал подлянки.... :shok:
Думал, группа ударится на этом альбоме в дэз-мэтол или в скоростной грув-трэш.
Не-а, они вдарились. Кхм, так и не понял куда. Скорее всего это Groove Metal + Rock & Roll, Southern Rock, Folk Rock, Experimental Music :crazy: :vic:

3/10

Можно было бы еще несколько раз альбом погонять, но нету особо времени. Да и мнение точно не поменяется.

mirror: Narod l M-Cloud

_________________


Top
 Profile E-mail  
 
 
PostPosted: 05 Dec 2014 
Трешер
User avatar
Joined: 25 Feb 2011
Posts: 1115
Lоcаtion: Харьков
Age: 42
Name: Aleksandr
А меня прет :true: какой вокал душевный на втором альбомчеге! :meloman:


Top
 Profile E-mail  
 
 
PostPosted: 05 Dec 2014 
Хиппей (support team)
User avatar
Joined: 30 Jul 2007
Posts: 111805
Lоcаtion: Киев (Kyiv, UA)
Age: 45
Name: Andrey
Furious Trauma - 1996 - Strange Ways [192] - stream rip

Image

    1. Chaos Within - 03:14
    2. My Dying Time - 06:30
    3. Way to Perfection - 04:36
    4. Born of the Flag - 03:56
    5. Strange Ways - 04:08
    6. The Challenge (Artillery cover) - 04:55

    TPT: 27:03

Порадовал кавер на своих соотечественников :meloman:

Narod l M-Cloud

ps. В одной песне намеренный (от меня) косяк присутствует.

_________________


Top
 Profile E-mail  
 
 
PostPosted: 05 Dec 2014 
Трешер
User avatar
Joined: 25 Feb 2011
Posts: 1115
Lоcаtion: Харьков
Age: 42
Name: Aleksandr
Вот из за этого кавера я их и узнал , кстати The Challenge поет то сам Flemming Rönsdorf из Artillery , все верно сам поет свойскую песенку.


Top
 Profile E-mail  
 
 
PostPosted: 05 Dec 2014 
Хиппей (support team)
User avatar
Joined: 30 Jul 2007
Posts: 111805
Lоcаtion: Киев (Kyiv, UA)
Age: 45
Name: Andrey
glloomerxe wrote:
кстати The Challenge поет то сам Flemming Rönsdorf из Artillery , все верно сам поет свойскую песенку.

:shok: Опа, а я думаю - а шо так похоже звучит на оригинал :crazy:

_________________


Top
 Profile E-mail  
 
 
PostPosted: 06 Dec 2014 
Работнечег
User avatar
Joined: 28 Aug 2007
Posts: 5812
Lоcаtion: г. Москва
Age: 30
Name: Дима
Как вариант)
http://www.discogs.com/sell/release/5961790?ev=rb
http://www.discogs.com/sell/release/5845072?ev=rb


Top
 Profile E-mail  
 
 
PostPosted: 06 Dec 2014 
Хиппей (support team)
User avatar
Joined: 30 Jul 2007
Posts: 111805
Lоcаtion: Киев (Kyiv, UA)
Age: 45
Name: Andrey
Кстати, да. Диим, спасибо. А вот не видел я пока рипа того, трёхрелизовского :vic:

_________________


Top
 Profile E-mail  
 
 
PostPosted: 06 Dec 2014 
Трешер
User avatar
Joined: 25 Feb 2011
Posts: 1115
Lоcаtion: Харьков
Age: 42
Name: Aleksandr
Я уже купил 1992 , жду.


Top
 Profile E-mail  
 
 
PostPosted: 06 Dec 2014 
Хиппей (support team)
User avatar
Joined: 30 Jul 2007
Posts: 111805
Lоcаtion: Киев (Kyiv, UA)
Age: 45
Name: Andrey
О, 92-й отлично :true:

_________________


Top
 Profile E-mail  
 
 
PostPosted: 07 Dec 2014 
Хиппей (support team)
User avatar
Joined: 30 Jul 2007
Posts: 111805
Lоcаtion: Киев (Kyiv, UA)
Age: 45
Name: Andrey
Furious Trauma - 1999 - Roll The Dice [wv]

Image Image Image

mirror: Narod l M-Cloud

Выбрал из трёх вариантов рипов. Этот скачал осликом. Он мне по качеству сканов и отношению к работе "релизёра" больше всех нравился.

log
Exact Audio Copy V0.99 prebeta 5 from 4. May 2009

EAC extraction logfile from 5. October 2010, 10:42

Furious Trauma / Roll The Dice

Used drive : HL-DT-STDVD-RAM GH22LP20 Adapter: 4 ID: 1

Read mode : Secure
Utilize accurate stream : Yes
Defeat audio cache : Yes
Make use of C2 pointers : No

Read offset correction : 102
Overread into Lead-In and Lead-Out : No
Fill up missing offset samples with silence : Yes
Delete leading and trailing silent blocks : No
Null samples used in CRC calculations : Yes
Used interface : Installed external ASPI interface

Used output format : User Defined Encoder
Selected bitrate : 896 kBit/s
Quality : High
Add ID3 tag : No
Command line compressor : C:\Program Files (x86)\Exact Audio Copy\WAV Pack\wavpack.exe
Additional command line options : -hlmx2 %s


TOC of the extracted CD

Track | Start | Length | Start sector | End sector
---------------------------------------------------------
1 | 0:00.00 | 0:36.72 | 0 | 2771
2 | 0:36.72 | 4:43.50 | 2772 | 24046
3 | 5:20.47 | 3:15.28 | 24047 | 38699
4 | 8:36.00 | 4:37.72 | 38700 | 59546
5 | 13:13.72 | 3:17.40 | 59547 | 74361
6 | 16:31.37 | 3:04.00 | 74362 | 88161
7 | 19:35.37 | 3:56.38 | 88162 | 105899
8 | 23:32.00 | 3:48.35 | 105900 | 123034
9 | 27:20.35 | 2:38.22 | 123035 | 134906
10 | 29:58.57 | 3:27.25 | 134907 | 150456
11 | 33:26.07 | 5:53.48 | 150457 | 176979
12 | 39:19.55 | 3:38.40 | 176980 | 193369
13 | 42:58.20 | 2:08.70 | 193370 | 203039


Range status and errors

Selected range

Filename X:\Releases RAW\Furious Trauma - Roll The Dice\Furious Trauma - Roll The Dice.wav

Peak level 99.9 %
Range quality 100.0 %
Test CRC 2C86C062
Copy CRC 2C86C062
Copy OK

No errors occurred


AccurateRip summary

Track 1 accurately ripped (confidence 2) [0241003F]
Track 2 accurately ripped (confidence 2) [0C5D5B81]
Track 3 accurately ripped (confidence 2) [5ACFDFCF]
Track 4 accurately ripped (confidence 2) [32647584]
Track 5 accurately ripped (confidence 2) [5ED3D3EE]
Track 6 accurately ripped (confidence 2) [D865F086]
Track 7 accurately ripped (confidence 2) [E04E0CFD]
Track 8 accurately ripped (confidence 2) [617C345E]
Track 9 accurately ripped (confidence 2) [A43A82F0]
Track 10 accurately ripped (confidence 2) [B34854B7]
Track 11 accurately ripped (confidence 2) [C8FB312C]
Track 12 accurately ripped (confidence 2) [3E6FD919]
Track 13 accurately ripped (confidence 2) [CBDFB972]

All tracks accurately ripped

End of status report

cue
REM GENRE "Groove Metal"
REM DATE 1999
REM DISCID A10A930D
REM COMMENT "ExactAudioCopy v0.99pb5"
PERFORMER "Furious Trauma"
TITLE "Roll The Dice"
FILE "Furious Trauma - Roll The Dice.wv" WAVE
TRACK 01 AUDIO
TITLE "Intro"
PERFORMER "Furious Trauma"
INDEX 01 00:00:00
TRACK 02 AUDIO
TITLE "Roll The Dice"
PERFORMER "Furious Trauma"
INDEX 01 00:36:72
TRACK 03 AUDIO
TITLE "On Top Of The World"
PERFORMER "Furious Trauma"
INDEX 01 05:20:47
TRACK 04 AUDIO
TITLE "Alive"
PERFORMER "Furious Trauma"
INDEX 01 08:36:00
TRACK 05 AUDIO
TITLE "The Fifth Season"
PERFORMER "Furious Trauma"
INDEX 00 13:11:35
INDEX 01 13:13:72
TRACK 06 AUDIO
TITLE "Opinions"
PERFORMER "Furious Trauma"
INDEX 01 16:31:37
TRACK 07 AUDIO
TITLE "Worth To Live"
PERFORMER "Furious Trauma"
INDEX 01 19:35:37
TRACK 08 AUDIO
TITLE "Hole In My Pocket"
PERFORMER "Furious Trauma"
INDEX 00 23:30:42
INDEX 01 23:32:00
TRACK 09 AUDIO
TITLE "Memory And Mind (Part 1)"
PERFORMER "Furious Trauma"
INDEX 00 27:17:72
INDEX 01 27:20:35
TRACK 10 AUDIO
TITLE "Weightless"
PERFORMER "Furious Trauma"
INDEX 00 29:55:20
INDEX 01 29:58:57
TRACK 11 AUDIO
TITLE "Focus Intact"
PERFORMER "Furious Trauma"
INDEX 00 33:24:35
INDEX 01 33:26:07
TRACK 12 AUDIO
TITLE "In The Tombs"
PERFORMER "Furious Trauma"
INDEX 00 39:17:57
INDEX 01 39:19:55
TRACK 13 AUDIO
TITLE "Memory And Mind (Part 2)"
PERFORMER "Furious Trauma"
INDEX 00 42:56:40
INDEX 01 42:58:20


Image Image Image Image

_________________


Top
 Profile E-mail  
 
 
PostPosted: 08 Dec 2014 
Прокъмитолист
User avatar
Joined: 12 Aug 2007
Posts: 6545
Lоcаtion: Санктъ-Петербуркъ
Age: 51
Name: Олекъ
:thanx:

_________________
прокъметол - это музыко, от которово есть прок (ы)


Top
 Profile  
 
 
PostPosted: 02 Jan 2015 
Трешер
User avatar
Joined: 25 Feb 2011
Posts: 1115
Lоcаtion: Харьков
Age: 42
Name: Aleksandr
Так пришли диски, сделаю на днях лосяру :lloo:


Image

Image

Image


Top
 Profile E-mail  
 
 
PostPosted: 07 Jan 2015 
Генеральный thrasher
User avatar
Joined: 03 Oct 2008
Posts: 3695
Lоcаtion: Ханты-Мансийский АО
Age: 44
Name: Сергей
Сань,лосика не забацал ещё?


Top
 Profile  
 
 
PostPosted: 07 Jan 2015 
Трешер
User avatar
Joined: 25 Feb 2011
Posts: 1115
Lоcаtion: Харьков
Age: 42
Name: Aleksandr
Не , у меня малой на каникулах пока не могу занят :pardon: .


Top
 Profile E-mail  
 
 
PostPosted: 07 Jan 2015 
Хиппей (support team)
User avatar
Joined: 30 Jul 2007
Posts: 111805
Lоcаtion: Киев (Kyiv, UA)
Age: 45
Name: Andrey
Ыыыъъ, каникулы до 1 февраля :lloo:

_________________


Top
 Profile E-mail  
 
 
PostPosted: 07 Jan 2015 
Трешер
User avatar
Joined: 25 Feb 2011
Posts: 1115
Lоcаtion: Харьков
Age: 42
Name: Aleksandr
нет до 12


Top
 Profile E-mail  
 
 
PostPosted: 07 Jan 2015 
Хиппей (support team)
User avatar
Joined: 30 Jul 2007
Posts: 111805
Lоcаtion: Киев (Kyiv, UA)
Age: 45
Name: Andrey
А-а, норм. А то в некоторых областях вижу до 1 февраля сделали, как и обещали. Они то раньше учиться начали.

По теме...
Кому-то еще группа хоть немножко понравилась? :vic:

_________________


Top
 Profile E-mail  
 
 
PostPosted: 07 Jan 2015 
Трешер
User avatar
Joined: 25 Feb 2011
Posts: 1115
Lоcаtion: Харьков
Age: 42
Name: Aleksandr
лосики на днях забацаю , а вот сканы по позже сделаю


Top
 Profile E-mail  
 
 
PostPosted: 15 Jun 2016 
Хиппей (support team)
User avatar
Joined: 30 Jul 2007
Posts: 111805
Lоcаtion: Киев (Kyiv, UA)
Age: 45
Name: Andrey
лосики на днях забацаю , а вот сканы по позже сделаю

Сань, ты живой? :kro:

_________________


Top
 Profile E-mail  
 
Display posts from previous:  Sort by  
Post new topic Reply to topic  [ 69 posts ]  Go to page Previous  1, 2, 3, 4  Next

All times are UTC + 3 hours


Who is online

Users browsing this forum: No registered users and 1 guest


You cannot post new topics in this forum
You cannot reply to topics in this forum
You cannot edit your posts in this forum
You cannot delete your posts in this forum
You cannot post attachments in this forum

Search for:
Яндекс.Метрика
Powered by phpBB © 2000, 2002, 2005, 2007 phpBB Group