\m/ 80's metal \m/

Информационно-аналитический форум "80 см пыли" (In Search We Trust) "У нас никто никуда не спешит"
Me For You - http://me-4u.com
It is currently 23 Apr 2019

All times are UTC + 3 hours

Spoiler
Chat - temporary registration for foreign users (please leave your application here)







Post new topic Reply to topic  [ 9 posts ] 
Author Message
 
PostPosted: 30 May 2013 
А может смените мне статус?..
User avatar
Joined: 24 Sep 2012
Posts: 856
Lоcаtion: Нижегородская обл.
Age: 48
Name: Вячеслав
Image

Исполнитель: Fist
Альбом: Reign Of Terror
Страна: Canada (Ottawa, Ontario)
Год издания: 1993
Издатель (лейбл) /Номер по каталогу: Magada International / MAGCD-3E
Жанр: Traditional Heavy Metal
Формат Аудио: FLAC (Cue/Log/Image)+ All Scans
Продолжительность Звучания Альбома: 00:47:45
Размер Архива: 346 Mb (+ 3% recovery)
Источник (релизер): slayer19

Треклист:

01. Muscle Gun (03:55)
02. Tough Boy (04:08)
03. I've Just Seen a Face (03:31)
04. First Time In (03:16)
05. Anything Goes / Reign of Terror (09:54)
06. God Damn (04:14)
07. Dirty Money (04:33)
08. Good Hard Rock (04:56)
09. I Will Remember (03:15)
10. Under My Wheels (06:03)

"Лог создания рипа"
Exact Audio Copy V1.0 beta 3 from 29. August 2011

Отчёт EAC об извлечении, выполненном 30. мая 2013, 10:57

Fist / Reign Of Terror

Дисковод: Optiarc DVD RW AD-7200A Adapter: 0 ID: 0

Режим чтения : Достоверность
Использование точного потока : Да
Отключение кэша аудио : Да
Использование указателей C2 : Нет

Коррекция смещения при чтении : 48
Способность читать области Lead-in и Lead-out : Нет
Заполнение пропущенных сэмплов тишиной : Да
Удаление блоков с тишиной в начале и конце : Нет
При вычислениях CRC использовались нулевые сэмплы : Да
Интерфейс : Встроенный Win32-интерфейс для Win NT/2000

Выходной формат : Пользовательский кодировщик
Выбранный битрейт : 128 kBit/s
Качество : Высокий
Добавление ID3-тега : Нет
Утилита сжатия : C:\Program Files\FLAC\FLAC frontend.exe

TOC извлечённого CD

Трек | Старт | Длительность | Начальный сектор | Конечный сектор
---------------------------------------------------------------------
1 | 0:00.32 | 3:54.45 | 32 | 17626
2 | 3:55.02 | 4:08.23 | 17627 | 36249
3 | 8:03.25 | 3:31.02 | 36250 | 52076
4 | 11:34.27 | 3:15.58 | 52077 | 66759
5 | 14:50.10 | 9:53.42 | 66760 | 111276
6 | 24:43.52 | 4:13.38 | 111277 | 130289
7 | 28:57.15 | 4:33.02 | 130290 | 150766
8 | 33:30.17 | 4:56.03 | 150767 | 172969
9 | 38:26.20 | 3:15.22 | 172970 | 187616
10 | 41:41.42 | 6:03.35 | 187617 | 214876

Характеристики диапазона извлечения и сообщения об ошибках

Выбранный диапазон

Имя файла D:\МОИ ФАЙЛЫ\LOSSLESS\slayer19\Fist - Reign Of Terror.wav

Пиковый уровень 96.6 %
Скорость извлечения 3.6 X
Качество диапазона 100.0 %
CRC теста 28973E41
CRC копии 28973E41
Копирование... OK

Ошибок не произошло

AccurateRip: сводка

Трек 1 : извлечено точно (доверие 3) [1F610E4F] (AR v1)
Трек 2 : извлечено точно (доверие 3) [9302477A] (AR v1)
Трек 3 : извлечено точно (доверие 3) [A82D8D37] (AR v1)
Трек 4 : извлечено точно (доверие 3) [2BB19570] (AR v1)
Трек 5 : извлечено точно (доверие 3) [816638F8] (AR v1)
Трек 6 : извлечено точно (доверие 3) [52EC381B] (AR v1)
Трек 7 : извлечено точно (доверие 3) [1D9B743C] (AR v1)
Трек 8 : извлечено точно (доверие 3) [18A2943A] (AR v1)
Трек 9 : извлечено точно (доверие 3) [D89A3EA3] (AR v1)
Трек 10 : извлечено точно (доверие 3) [B5888D03] (AR v1)

Все треки извлечены точно

Конец отчёта

---- CUETools DB Plugin V2.1.3

[CTDB TOCID: Wtmmb14zY5aSVVBOKvKXCpq9ETo-] disk not present in database, Submit result: discs with pregaps not supported in this protocol version

==== Контрольная сумма отчёта 16DC323BD528C37B2CCF562FF0198C5D49F61D0068899BBBBE6748AE131D78C1 ====

"Фото"
Image


Скачать: http://yadi.sk/d/rZD98vV_5JtCY

_________________
Image


Top
 Profile E-mail  
 
 
PostPosted: 30 May 2013 
Пионэръ
User avatar
Joined: 02 Jul 2010
Posts: 45
Lоcаtion: Сочи
Age: 46
Name: Борис
:thanx: :thanx:


Top
 Profile E-mail  
 
 
PostPosted: 30 May 2013 
Доктор энтомологии
User avatar
Joined: 22 Jan 2009
Posts: 9694
Lоcаtion: Даугавпилс
Age: 44
Name: Алексей
slayer19
:thanx:


Top
 Profile  
 
 
PostPosted: 30 May 2013 
Анатолий
User avatar
Joined: 18 Oct 2008
Posts: 3412
Lоcаtion: Армавир
Age: 41
Name: Анатолий
Спасибо большое! :thanx: :true:


Top
 Profile E-mail  
 
 
PostPosted: 30 May 2013 
Хиппей (support team)
User avatar
Joined: 30 Jul 2007
Posts: 111788
Lоcаtion: Киев (Kyiv, UA)
Age: 45
Name: Andrey
:thanx:

mirror: F-Bit l Narod

_________________


Top
 Profile E-mail  
 
 
PostPosted: 31 May 2013 
спирт 100%
User avatar
Joined: 22 Sep 2008
Posts: 4392
Age: 47
Name: Саня
:thanx: Спасибо!


Top
 Profile  
 
 
PostPosted: 31 May 2013 
А может смените мне статус?..
User avatar
Joined: 24 Sep 2012
Posts: 856
Lоcаtion: Нижегородская обл.
Age: 48
Name: Вячеслав
Всем пожалуйста! :drink:

_________________
Image


Top
 Profile E-mail  
 
 
PostPosted: 16 Jun 2013 
Alive Again
User avatar
Joined: 17 Dec 2008
Posts: 4747
Lоcаtion: Курск Воронеж Оскол
Age: 44
Name: Дмитрий
:thanx:


Top
 Profile E-mail  
 
 
PostPosted: 12 Oct 2013 
\m/ 80 см сала \m/
User avatar
Joined: 12 Mar 2012
Posts: 2590
Age: 26
Name: Nick
slayer19, :thanx:

_________________
1990 AUROPHON BRAINSTORM (Germany) - lossless
1994 MAUSOLEUM CLASSIX (Belgium-Germany) - lossless
1998 VA - GRIM HARVEST - Complete Metal Massacre Volumes I-XII


Top
 Profile  
 
Display posts from previous:  Sort by  
Post new topic Reply to topic  [ 9 posts ] 

All times are UTC + 3 hours


Who is online

Users browsing this forum: No registered users and 1 guest


You cannot post new topics in this forum
You cannot reply to topics in this forum
You cannot edit your posts in this forum
You cannot delete your posts in this forum
You cannot post attachments in this forum

Search for:
Яндекс.Метрика
Powered by phpBB © 2000, 2002, 2005, 2007 phpBB Group