\m/ 80's metal \m/

Информационно-аналитический форум "80 см пыли" (In Search We Trust) "У нас никто никуда не спешит"
Me For You - http://me-4u.com
It is currently 24 Apr 2019

All times are UTC + 3 hours

Spoiler
Chat - temporary registration for foreign users (please leave your application here)







Post new topic Reply to topic  [ 6 posts ] 
Author Message
 
PostPosted: 10 Jun 2012 
Работнечег
User avatar
Joined: 28 Aug 2007
Posts: 5812
Lоcаtion: г. Москва
Age: 30
Name: Дима
Image

Year: 2006
Label: self-released
Country: UK
Style: Heavy Metal
Format: Flac + Cue + Log + Covers
Size: 368 Mb

Line-Up:
Kev Graham - Bass, Vocals
Ian Toomey - Guitar (Bitches Sin)
Pete Toomey - Guitar (Bitches Sin)
Steve Turton - Drums (Bitches Sin)
Frank Quegan - Vocals (ex-Bitches Sin)


Tracklist:
1. Blown Away 04:00
2. Metal Sun 03:08
3. Dont 03:41
4. Blood Over Sand 05:17
5. Plastic 04:32
6. You're Going Nowhere 06:10
7. Rivers 03:45
8. Hostage 05:42
9. One More Love 06:32
10. Very Soon Everybodys Leaving 05:48
11. Sun Dogs 01:31

LOG
Exact Audio Copy V0.99 prebeta 5 from 4. May 2009

EAC extraction logfile from 27. May 2012, 15:16

Flash Point / Flashpoint

Used drive : PIONEER DVD-RW DVR-116D Adapter: 0 ID: 0

Read mode : Secure
Utilize accurate stream : Yes
Defeat audio cache : Yes
Make use of C2 pointers : No

Read offset correction : 96
Overread into Lead-In and Lead-Out : No
Fill up missing offset samples with silence : Yes
Delete leading and trailing silent blocks : No
Null samples used in CRC calculations : Yes
Used interface : Native Win32 interface for Win NT & 2000

Used output format : User Defined Encoder
Selected bitrate : 32 kBit/s
Quality : High
Add ID3 tag : No
Command line compressor : C:\Program Files\Exact Audio Copy\Flac\flac.exe
Additional command line options : -6 -V %s


TOC of the extracted CD

Track | Start | Length | Start sector | End sector
---------------------------------------------------------
1 | 0:00.00 | 4:00.19 | 0 | 18018
2 | 4:00.19 | 3:08.04 | 18019 | 32122
3 | 7:08.23 | 3:41.20 | 32123 | 48717
4 | 10:49.43 | 5:16.31 | 48718 | 72448
5 | 16:05.74 | 4:31.48 | 72449 | 92821
6 | 20:37.47 | 6:09.52 | 92822 | 120548
7 | 26:47.24 | 3:44.28 | 120549 | 137376
8 | 30:31.52 | 5:41.69 | 137377 | 163020
9 | 36:13.46 | 6:32.23 | 163021 | 192443
10 | 42:45.69 | 5:47.31 | 192444 | 218499
11 | 48:33.25 | 1:30.33 | 218500 | 225282
12 | 52:35.58 | 6:33.15 | 236683 | 266172


Range status and errors

Selected range

Filename D:\Музыка\Lossless\Flash Point - Flshpoint (2006)\Flash Point - Flashpoint.wav

Peak level 99.4 %
Range quality 100.0 %
Copy CRC 95AEE809
Copy OK

No errors occurred


AccurateRip summary

Track 1 not present in database
Track 2 not present in database
Track 3 not present in database
Track 4 not present in database
Track 5 not present in database
Track 6 not present in database
Track 7 not present in database
Track 8 not present in database
Track 9 not present in database
Track 10 not present in database
Track 11 not present in database

None of the tracks are present in the AccurateRip database

End of status report

CUE
REM GENRE "Heavy Metal"
REM DATE 2006
REM DISCID A50DDC0C
REM COMMENT "ExactAudioCopy v0.99pb5"
PERFORMER "Flash Point"
TITLE "Flashpoint"
FILE "Flash Point - Flashpoint.flac" WAVE
TRACK 01 AUDIO
TITLE "Blown Away"
PERFORMER "Flash Point"
INDEX 01 00:00:00
TRACK 02 AUDIO
TITLE "Metal Sun"
PERFORMER "Flash Point"
INDEX 00 03:58:36
INDEX 01 04:00:19
TRACK 03 AUDIO
TITLE "Don't"
PERFORMER "Flash Point"
INDEX 00 07:06:40
INDEX 01 07:08:23
TRACK 04 AUDIO
TITLE "Blood Over Sand"
PERFORMER "Flash Point"
INDEX 00 10:47:60
INDEX 01 10:49:43
TRACK 05 AUDIO
TITLE "Plastic"
PERFORMER "Flash Point"
INDEX 00 16:04:62
INDEX 01 16:05:74
TRACK 06 AUDIO
TITLE "You're Going Nowhere"
PERFORMER "Flash Point"
INDEX 00 20:36:58
INDEX 01 20:37:47
TRACK 07 AUDIO
TITLE "Rivers"
PERFORMER "Flash Point"
INDEX 00 26:45:41
INDEX 01 26:47:24
TRACK 08 AUDIO
TITLE "Hostage"
PERFORMER "Flash Point"
INDEX 01 30:31:52
TRACK 09 AUDIO
TITLE "One More Love"
PERFORMER "Flash Point"
INDEX 00 36:12:33
INDEX 01 36:13:46
TRACK 10 AUDIO
TITLE "Very Soon Everyone's Leaving"
PERFORMER "Flash Point"
INDEX 00 42:44:50
INDEX 01 42:45:69
TRACK 11 AUDIO
TITLE "Sun Dogs"
PERFORMER "Flash Point"
INDEX 00 48:31:42
INDEX 01 48:33:25


Narod.Ru


Top
 Profile E-mail  
 
 
PostPosted: 10 Jun 2012 
Прокъмитолист
User avatar
Joined: 12 Aug 2007
Posts: 6545
Lоcаtion: Санктъ-Петербуркъ
Age: 51
Name: Олекъ
Димка, спасибо :thanx: не знаю, что за зверь, но утащу :dance:

_________________
прокъметол - это музыко, от которово есть прок (ы)


Top
 Profile  
 
 
PostPosted: 10 Jun 2012 
Хиппей (support team)
User avatar
Joined: 30 Jul 2007
Posts: 111812
Lоcаtion: Киев (Kyiv, UA)
Age: 45
Name: Andrey
:thanx:

mirror: MultiUp l Narod

_________________


Top
 Profile E-mail  
 
 
PostPosted: 16 Jun 2012 
А может смените мне статус?..
User avatar
Joined: 30 Aug 2009
Posts: 824
Lоcаtion: Ачинск, Красноярский край
Age: 33
Name: Стас
:thanx: :thanx: :thanx:


Top
 Profile E-mail  
 
 
PostPosted: 18 Jun 2012 
Труъ
Joined: 01 Jan 2010
Posts: 118
Lоcаtion: MetaLWarrioR
Name: Сергей
Большое спасибо!


Top
 Profile E-mail  
 
 
PostPosted: 23 Jul 2012 
Труъ
User avatar
Joined: 05 Oct 2008
Posts: 194
Lоcаtion: Saint Petersburg
Age: 45
Name: Jesse
:thanx:


Top
 Profile  
 
Display posts from previous:  Sort by  
Post new topic Reply to topic  [ 6 posts ] 

All times are UTC + 3 hours


Who is online

Users browsing this forum: No registered users and 3 guests


You cannot post new topics in this forum
You cannot reply to topics in this forum
You cannot edit your posts in this forum
You cannot delete your posts in this forum
You cannot post attachments in this forum

Search for:
Яндекс.Метрика
Powered by phpBB © 2000, 2002, 2005, 2007 phpBB Group