\m/ 80's metal \m/

Информационно-аналитический форум "80 см пыли" (In Search We Trust) "У нас никто никуда не спешит"
Me For You - http://me-4u.com
It is currently 19 Jun 2019

All times are UTC + 3 hours

Spoiler
Chat - temporary registration for foreign users (please leave your application here)







Post new topic Reply to topic  [ 27 posts ]  Go to page Previous  1, 2
Author Message
 
PostPosted: 04 Oct 2011 
Хиппей (support team)
User avatar
Joined: 30 Jul 2007
Posts: 113091
Lоcаtion: Киев (Kyiv, UA)
Age: 46
Name: Andrey
Fact - 1984 - As A Matter Of... (reissued 1994) [ape]

Image

Genre: Heavy Metal
Location: Germany
Format: ape+cue+log+covers
Size: 307 Mb


Line-up:

Thorsten Kath - Bass
Michael Peer Würfel - Drums
Patricia Huth - Guitars
Michael "Metal Micky" Otto - Guitars
Reent Froehlich - Vocals

Image

1. Marauder - 05:12
2. Sound Attack - 03:26
3. Make it Real - 04:48
4. Nightmare - 05:07
5. Heavy Metal Powerplay - 03:43
6. Prisoner - 05:27
7. Run (Out of the Night) - 04:44
8. Suspected Quiet - 05:20
9. Hard Times - 04:22

TPT: 42:09

:thanx: to darvla from MMT

MultiUp l Narod

Группа и альбом, если что - эдакий качественный и хороший клон ранних Accept :meloman:

log
Exact Audio Copy V0.99 prebeta 5 from 4. May 2009

EAC extraction logfile from 28. September 2011, 22:04

Fact / As a matter of ....

Used drive : PIONEER DVD-RW DVR-115D Adapter: 0 ID: 0

Read mode : Secure
Utilize accurate stream : Yes
Defeat audio cache : Yes
Make use of C2 pointers : No

Read offset correction : 48
Overread into Lead-In and Lead-Out : No
Fill up missing offset samples with silence : Yes
Delete leading and trailing silent blocks : No
Null samples used in CRC calculations : Yes
Used interface : Native Win32 interface for Win NT & 2000

Used output format : Internal WAV Routines
Sample format : 44.100 Hz; 16 Bit; Stereo


TOC of the extracted CD

Track | Start | Length | Start sector | End sector
---------------------------------------------------------
1 | 0:00.00 | 5:09.27 | 0 | 23201
2 | 5:09.27 | 3:28.00 | 23202 | 38801
3 | 8:37.27 | 4:31.03 | 38802 | 59129
4 | 13:08.30 | 5:10.60 | 59130 | 82439
5 | 18:19.15 | 3:47.32 | 82440 | 99496
6 | 22:06.47 | 5:30.70 | 99497 | 124316
7 | 27:37.42 | 4:46.60 | 124317 | 145826
8 | 32:24.27 | 5:24.68 | 145827 | 170194
9 | 37:49.20 | 4:08.57 | 170195 | 188851


Range status and errors

Selected range

Filename D:\Fact - As a matter of\Fact - As a matter of .....wav

Peak level 98.0 %
Range quality 99.9 %
Copy CRC 74B8817F
Copy OK

No errors occurred


AccurateRip summary

Track 1 cannot be verified as accurate (confidence 1) [E687349C], AccurateRip returned [53645A44]
Track 2 cannot be verified as accurate (confidence 1) [9FDAE4DE], AccurateRip returned [18A85E56]
Track 3 cannot be verified as accurate (confidence 1) [C56C2122], AccurateRip returned [0916182A]
Track 4 cannot be verified as accurate (confidence 1) [3D368EE8], AccurateRip returned [DDCEA140]
Track 5 cannot be verified as accurate (confidence 1) [E50A5694], AccurateRip returned [331D7A6C]
Track 6 cannot be verified as accurate (confidence 1) [A0663BA2], AccurateRip returned [7B8FFDE2]
Track 7 cannot be verified as accurate (confidence 1) [D8A49A06], AccurateRip returned [10266C56]
Track 8 cannot be verified as accurate (confidence 1) [3EBA1500], AccurateRip returned [87F96D08]
Track 9 cannot be verified as accurate (confidence 1) [C70DCF61], AccurateRip returned [AD18E969]

No tracks could be verified as accurate
You may have a different pressing from the one(s) in the database

End of status report

cue
REM DISCID 6C09D609
REM COMMENT "ExactAudioCopy v0.99pb5"
PERFORMER "Fact"
TITLE "As a matter of ...."
FILE "Fact - As a matter of .....wav" WAVE
TRACK 01 AUDIO
TITLE "Marauder"
PERFORMER "Fact"
INDEX 01 00:00:00
TRACK 02 AUDIO
TITLE "Sound Attack"
PERFORMER "Fact"
INDEX 00 05:06:74
INDEX 01 05:09:27
TRACK 03 AUDIO
TITLE "Make it real"
PERFORMER "Fact"
INDEX 00 08:35:01
INDEX 01 08:37:27
TRACK 04 AUDIO
TITLE "Nightmare"
PERFORMER "Fact"
INDEX 00 13:05:35
INDEX 01 13:08:30
TRACK 05 AUDIO
TITLE "Heavy Metal Powerplay"
PERFORMER "Fact"
INDEX 00 18:16:61
INDEX 01 18:19:15
TRACK 06 AUDIO
TITLE "Prisoner"
PERFORMER "Fact"
INDEX 00 22:04:34
INDEX 01 22:06:47
TRACK 07 AUDIO
TITLE "Run (Out of the night)"
PERFORMER "Fact"
INDEX 00 27:35:56
INDEX 01 27:37:42
TRACK 08 AUDIO
TITLE "Suspected Quiet"
PERFORMER "Fact"
INDEX 00 32:22:28
INDEX 01 32:24:27
TRACK 09 AUDIO
TITLE "Hard Times"
PERFORMER "Fact"
INDEX 00 37:44:48
INDEX 01 37:49:20

spectre
Image

_________________


Top
 Profile E-mail  
 
 
PostPosted: 03 Jul 2012 
Motörheadache
User avatar
Joined: 04 Feb 2010
Posts: 1294
Lоcаtion: Впереди- горы,позади-степи
Age: 46
Name: Александр
Вася_металлист_2012 wrote:
alexx1973 wrote:
Была бы брунеткой-подрочил бы


Гляди, а тут у нее волосы потемнее :str:

Image

Та да вобщемта...
Тока фотка какая-то не дрочибельная...Неа... :nea:

_________________
Eine Nation, Ein Land, Eine Schnaps!

Наш священный долг:защищать Родину,и соблюдать правила личной гигиены....!


Top
 Profile E-mail  
 
 
PostPosted: 03 Jul 2012 
ТрэшЭрос
User avatar
Joined: 18 Jul 2011
Posts: 2303
Lоcаtion: Гулькевичи
Age: 44
Name: Александр
Scatterbrain wrote:
какие лосины у музыкантов ератишны

асьмитисятые, мотные :benya:

_________________
Thrash no trash!!!


Top
 Profile E-mail  
 
 
PostPosted: 03 Jul 2012 
***


Last edited by Вася_металлист_2012 on 14 Dec 2012, edited 1 time in total.

Top
  
 
 
PostPosted: 05 Jul 2012 
Motörheadache
User avatar
Joined: 04 Feb 2010
Posts: 1294
Lоcаtion: Впереди- горы,позади-степи
Age: 46
Name: Александр
Вася_металлист_2012 wrote:
и уваж уже наконец старуху. Заочно

Вась...не ну я конечно могу вспомнить свои первые эррекции в благОм возрасте и черно-белые порно-карты....
Но не до такой же степени..... :nea:
Ладно...выпью водки и вернусь к "женщине с гитарой " ,в ранее предложенном варианте....
Авось чего и срастётся... :benya: :crazy:

_________________
Eine Nation, Ein Land, Eine Schnaps!

Наш священный долг:защищать Родину,и соблюдать правила личной гигиены....!


Top
 Profile E-mail  
 
 
PostPosted: 05 Jul 2012 
***


Last edited by Вася_металлист_2012 on 14 Dec 2012, edited 1 time in total.

Top
  
 
 
PostPosted: 05 Jul 2012 
Motörheadache
User avatar
Joined: 04 Feb 2010
Posts: 1294
Lоcаtion: Впереди- горы,позади-степи
Age: 46
Name: Александр
Вася_металлист_2012 wrote:
Хотя обычно я Доре не изменяю

О-о-о-о-о...Доротее-е-е-яа-а-а-а.... :str: :mad:
Тс-с-с-с..,камерад :roll: (молчим...просто тихо молчим).....

_________________
Eine Nation, Ein Land, Eine Schnaps!

Наш священный долг:защищать Родину,и соблюдать правила личной гигиены....!


Top
 Profile E-mail  
 
 
PostPosted: 06 Jul 2012 
Хиппей (support team)
User avatar
Joined: 30 Jul 2007
Posts: 113091
Lоcаtion: Киев (Kyiv, UA)
Age: 46
Name: Andrey
Извращенцы :esel: :crazy:

_________________


Top
 Profile E-mail  
 
Display posts from previous:  Sort by  
Post new topic Reply to topic  [ 27 posts ]  Go to page Previous  1, 2

All times are UTC + 3 hours


Who is online

Users browsing this forum: No registered users and 1 guest


You cannot post new topics in this forum
You cannot reply to topics in this forum
You cannot edit your posts in this forum
You cannot delete your posts in this forum
You cannot post attachments in this forum

Search for:
Яндекс.Метрика
Powered by phpBB © 2000, 2002, 2005, 2007 phpBB Group