\m/ 80's metal \m/

Информационно-аналитический форум "80 см пыли" (In Search We Trust) "У нас никто никуда не спешит"
Me For You - http://me-4u.com
It is currently 16 Nov 2019

All times are UTC + 3 hours

Spoiler
Chat - temporary registration for foreign users (please leave your application here)







Post new topic Reply to topic  [ 17 posts ] 
Author Message
 
PostPosted: 19 Dec 2010 
Пионэръ
Joined: 29 Nov 2010
Posts: 21
Lоcаtion: Viet Nam
Name: Nguyen Hoang Long
Hirax - Hate, Fear and Power 1986

Image

Band: Hirax
Album: Hate, Fear and Power
Year: 1986
Genre: Thrash Metal

Tracklist:
Hate, Fear and Power 0:30
Blind Faith 2:54
Unholy Sacrifice 2:09
Lightning Thunder 2:04
The Last War 2:30
The Plague 1:55
Imprisoned by Ignorance 1:59
Criminal Punishment 2:01


Top
 Profile E-mail  
 
 
PostPosted: 19 Dec 2010 
Я набрал 1000 сообщений!
User avatar
Joined: 02 Feb 2009
Posts: 1000
Lоcаtion: из Тулы
Age: 45
Name: Максим
заказал

_________________
КМА


Top
 Profile  
 
 
PostPosted: 19 Dec 2010 
"ну типа, хэви-метал это круто и все такое..." ©
User avatar
Joined: 31 Aug 2008
Posts: 902
Lоcаtion: Запорожье
Name: Саня
See here ;)


Top
 Profile  
 
 
PostPosted: 19 Dec 2010 
Пионэръ
Joined: 29 Nov 2010
Posts: 21
Lоcаtion: Viet Nam
Name: Nguyen Hoang Long
Thanks Yyz :thanx:


Top
 Profile E-mail  
 
 
PostPosted: 23 Apr 2016 
Работнечег
User avatar
Joined: 28 Aug 2007
Posts: 6061
Lоcаtion: г. Москва
Age: 30
Name: Дима
Reqs снимается?


Top
 Profile E-mail  
 
 
PostPosted: 23 Apr 2016 
консэрваторъ
User avatar
Joined: 11 Aug 2007
Posts: 17477
Lоcаtion: Псков
Age: 45
Name: Сергей
Ты имеешь в виду благодаря этому?.. :arrov: http://rutracker.org/forum/viewtopic.php?t=5213633
Топик стартеру давно пофигу уже на самом деле, но вот главный админ счас скажет, что мол надо сначала архивчик надёжно затырить и у нас проиндексировать...
:rem:

_________________
THRASH 'EM ALL


Top
 Profile E-mail  
 
 
PostPosted: 24 Apr 2016 
5-speed satisfactor
User avatar
Joined: 16 Feb 2009
Posts: 3774
Lоcаtion: New York, USA
Age: 41
Name: Leonid
А зачем сей нужен, если издавался 2 в 1ом цыд. У меня есть, если что. Я разве на выкладывал?

_________________
Death rules! Metal to all who oppose!


Top
 Profile  
 
 
PostPosted: 24 Apr 2016 
Хиппей (support team)
User avatar
Joined: 30 Jul 2007
Posts: 115543
Lоcаtion: Киев (Kyiv, UA)
Age: 46
Name: Andrey
Ты имеешь в виду благодаря этому?.. :arrov: http://rutracker.org/forum/viewtopic.php?t=5213633
Топик стартеру давно пофигу уже на самом деле, но вот главный админ счас скажет, что мол надо сначала архивчик надёжно затырить и у нас проиндексировать...
:rem:

Качнул винил-рипчег :thanx:

Hirax - 1986 - Hate, Fear and Power [flac] - vinyl

Image

mirror: iFolder l Narod l M-Cloud

cue
REM GENRE Thrash/Crossover
REM DATE 1986
PERFORMER "Hirax"
TITLE "Hate, Fear and Power"
FILE "Hirax - Hate, Fear and Power 1.flac" WAVE
TRACK 01 AUDIO
TITLE "Hate, Fear and Power"
INDEX 01 00:00:00
TRACK 02 AUDIO
TITLE "Blind Faith"
INDEX 01 00:32:37
TRACK 03 AUDIO
TITLE "Unholy Sacrifice"
INDEX 01 03:28:30
TRACK 04 AUDIO
TITLE "Lightning Thunder"
INDEX 01 05:34:38
FILE "Hirax - Hate, Fear and Power 2.flac" WAVE
TRACK 05 AUDIO
TITLE "The Last War"
INDEX 01 00:00:00
TRACK 06 AUDIO
TITLE "The Plague"
INDEX 01 02:37:23
TRACK 07 AUDIO
TITLE "Imprisoned by Ignorance"
INDEX 01 04:33:65
TRACK 08 AUDIO
TITLE "Criminal Punishment"
INDEX 01 06:32:48

_________________


Top
 Profile E-mail  
 
 
PostPosted: 24 Apr 2016 
Хиппей (support team)
User avatar
Joined: 30 Jul 2007
Posts: 115543
Lоcаtion: Киев (Kyiv, UA)
Age: 46
Name: Andrey
А зачем сей нужен, если издавался 2 в 1ом цыд. У меня есть, если что. Я разве на выкладывал?

Не знаю. Не помню, например... :vic:

_________________


Top
 Profile E-mail  
 
 
PostPosted: 24 Apr 2016 
консэрваторъ
User avatar
Joined: 11 Aug 2007
Posts: 17477
Lоcаtion: Псков
Age: 45
Name: Сергей
Scatterbrain wrote:
Качнул винил-рипчег

Переливать будешь?.. зачем-то... :vic:

_________________
THRASH 'EM ALL


Top
 Profile E-mail  
 
 
PostPosted: 24 Apr 2016 
Работнечег
User avatar
Joined: 28 Aug 2007
Posts: 6061
Lоcаtion: г. Москва
Age: 30
Name: Дима
Переливай, Андрюх, пригодится. МОжет немного наведем порядок и в старых топиках


Top
 Profile E-mail  
 
 
PostPosted: 25 Apr 2016 
Хиппей (support team)
User avatar
Joined: 30 Jul 2007
Posts: 115543
Lоcаtion: Киев (Kyiv, UA)
Age: 46
Name: Andrey
Scatterbrain wrote:
Hirax - 1986 - Hate, Fear and Power [flac] - vinyl

Никогда не понимал этой группы, играющей (причём, зачастую, одновременно) то хардкор, то трэшовый блэк, то хэви-павер :pardon:

_________________


Top
 Profile E-mail  
 
 
PostPosted: 25 Apr 2016 
Генеральный thrasher
User avatar
Joined: 03 Oct 2008
Posts: 3742
Lоcаtion: Ханты-Мансийский АО
Age: 44
Name: Сергей
Никогда не понимал этой группы, играющей (причём, зачастую, одновременно) то хардкор, то трэшовый блэк, то хэви-павер :pardon:


Много раз честно пытался понять эту группку с товарищем-негром на вокале...Не понял.Несмотря на достаточно большую дискографию,данный коллектив мне кажется одним из отстойнейших в трэше...И кстати те же молодые испанцы Raze намного лучше!


Top
 Profile  
 
 
PostPosted: 25 Apr 2016 
Хиппей (support team)
User avatar
Joined: 30 Jul 2007
Posts: 115543
Lоcаtion: Киев (Kyiv, UA)
Age: 46
Name: Andrey
thorbeorn wrote:
данный коллектив мне кажется одним из отстойнейших в трэше...

Не, ну они ж никогда натурный трэш и не играли. Помесь некую из стилей - да.
Кса, вот любопытно, наш Толя такое любит. Так любит ли Анатолик группу Хайракс?

_________________


Top
 Profile E-mail  
 
 
PostPosted: 25 Apr 2016 
Хиппей (support team)
User avatar
Joined: 30 Jul 2007
Posts: 115543
Lоcаtion: Киев (Kyiv, UA)
Age: 46
Name: Andrey
thorbeorn wrote:
И кстати те же молодые испанцы Raze намного лучше!

Это только лет через 20 станет ясно :crazy:

_________________


Top
 Profile E-mail  
 
 
PostPosted: 25 Apr 2016 
Генеральный thrasher
User avatar
Joined: 03 Oct 2008
Posts: 3742
Lоcаtion: Ханты-Мансийский АО
Age: 44
Name: Сергей
Может быть,Андрюх.Да вот только у Hirax и дебют был ни к чёрту,да и всё остальное непонятная окрошка!


Top
 Profile  
 
 
PostPosted: 26 Apr 2016 
Хиппей (support team)
User avatar
Joined: 30 Jul 2007
Posts: 115543
Lоcаtion: Киев (Kyiv, UA)
Age: 46
Name: Andrey
А я пока группу и не пробовал изучать, пару альбомов слушал всего-лишь.
Этот, кстати, неплохо, почти привычный хардкор, но вот вокал почти паверный не очень катит по такой музон :crazy:

_________________


Top
 Profile E-mail  
 
Display posts from previous:  Sort by  
Post new topic Reply to topic  [ 17 posts ] 

All times are UTC + 3 hours


Who is online

Users browsing this forum: No registered users and 2 guests


You cannot post new topics in this forum
You cannot reply to topics in this forum
You cannot edit your posts in this forum
You cannot delete your posts in this forum
You cannot post attachments in this forum

Search for:
Яндекс.Метрика
cron
Powered by phpBB © 2000, 2002, 2005, 2007 phpBB Group