\m/ 80's metal \m/

Информационно-аналитический форум "80 см пыли" (In Search We Trust) "У нас никто никуда не спешит"
Me For You - http://me-4u.com
It is currently 15 Dec 2019

All times are UTC + 3 hours

Spoiler
Chat - temporary registration for foreign users (please leave your application here)







Post new topic Reply to topic  [ 23 posts ]  Go to page Previous  1, 2
Author Message
 
PostPosted: 17 Aug 2013 
Хиппей (support team)
User avatar
Joined: 30 Jul 2007
Posts: 116142
Lоcаtion: Киев (Kyiv, UA)
Age: 46
Name: Andrey
Ага... А вот, кажись, и старенький Сашкин (Савелия) рип нашёлся в закромах.
Пусть и он здесь побудет, ага? Хотя бы для вашего самоутверждения :dance:

VA - Kleeblatt 22 - Plattform - MCB - Cobra - 1987 - [Amiga 8 56 329] [Split] [Vinyl-Rip] [WV 32bit-96kHz]

eDisk l F-Bit l Narod l

А если и не Санин рип, то смотрим куй и картинки опознаём автора :vic:
У меня файл обозначен как скачаный 28 апреля 2010 года.

cue
PERFORMER "1987 Kleeblatt №22"
TITLE "Plattform , MCB , Cobra - 1987 Kleeblatt №22"
FILE "Plattform , MCB , Cobra - 1987 Kleeblatt №22 [Amiga 8 56 329] [Split] .wv" WAVE

TRACK 01 AUDIO
TITLE "PLATTFORM:-Heavy Braut (Kotte, Schobe)"
FLAGS DCP
INDEX 01 00:00:00

TRACK 02 AUDIO
TITLE "PLATTFORM:-Feuer (PLATTFORM, Rublack)"
FLAGS DCP
INDEX 01 03:17:00

TRACK 03 AUDIO
TITLE "PLATTFORM:-Lichter der Nacht (Rublack)"
FLAGS DCP
INDEX 01 5:37:00

TRACK 04 AUDIO
TITLE "PLATTFORM:-Sechzehn (Rublack)"
FLAGS DCP
INDEX 01 9:06:00

TRACK 05 AUDIO
TITLE "MCB:-Heavy Mortel Mischmaschine (Baur)"
FLAGS DCP
INDEX 01 11:54:00

TRACK 06 AUDIO
TITLE "MCB:-Eisenmann (Baur)"
FLAGS DCP
INDEX 01 15:11:00

TRACK 07 AUDIO
TITLE "MCB:-Lied des Galgenbruders an Sophie das Henkermadel"
FLAGS DCP
INDEX 01 17:50:90

TRACK 08 AUDIO
TITLE "MCB:-Kommando 308 (Demnitz, Baur)"
FLAGS DCP
INDEX 01 21:12:00

TRACK 09 AUDIO
TITLE "COBRA:-Lady Rock (COBRA)"
FLAGS DCP
INDEX 01 23:39:00


TRACK 10 AUDIO
TITLE "COBRA:-Wilde Action (COBRA, Eichhorn)"
FLAGS DCP
INDEX 01 26:07:00

TRACK 11 AUDIO
TITLE "COBRA:-Traumer (COBRA, Eichhorn)"
FLAGS DCP
INDEX 01 29:27:00

TRACK 12 AUDIO
TITLE "COBRA:-Feuer unterm Eis (Bayer)"
FLAGS DCP
INDEX 01 32:48:60


ps. Упс, картинки не залью, они больше 20 метров каждая весят :oops: А копии бросать сюда ужатые не хочется.
Или закинуть? А то на Народе не всегда большие файлы можно открыть для просмотра.

pics
ImageImageImageImageImage

_________________


Top
 Profile E-mail  
 
 
PostPosted: 17 Aug 2013 
парень в очёчкXаX!
User avatar
Joined: 15 Aug 2007
Posts: 2353
Lоcаtion: UK'раина, г. ЛондАн Би-Би-Си
Age: 49
Name: Сергей
третий раз пытаюсь скачать с ентого F***Бита
еще свою оцифровку не выкинул, а так и не пытался бы даж'

добью пАлюбЭ :bodun: :wanna:
:thanx:

доходит до 400метров и начинаеца R'n'R :true:
ZZарЭжу бл... :diablo: :thor: :nofuck:

Image


Top
 Profile  
 
 
PostPosted: 17 Aug 2013 
Хиппей (support team)
User avatar
Joined: 30 Jul 2007
Posts: 116142
Lоcаtion: Киев (Kyiv, UA)
Age: 46
Name: Andrey
Добавил ссылку =) Вчера и так спешил, Народ тупил.

Серёг, а ты попробуй не Мазиллой качать с Ф-Бита.

Кстати, шото я тебя тута :arrow: viewtopic.php?f=6&t=11469 с жалобами не наблюдаю :vic:

зы. Ну и картинки все же ужал до нимагу и добавил в сообщение.

_________________


Top
 Profile E-mail  
 
Display posts from previous:  Sort by  
Post new topic Reply to topic  [ 23 posts ]  Go to page Previous  1, 2

All times are UTC + 3 hours


Who is online

Users browsing this forum: No registered users and 2 guests


You cannot post new topics in this forum
You cannot reply to topics in this forum
You cannot edit your posts in this forum
You cannot delete your posts in this forum
You cannot post attachments in this forum

Search for:
Яндекс.Метрика
Powered by phpBB © 2000, 2002, 2005, 2007 phpBB Group