\m/ 80's metal \m/

Информационно-аналитический форум "80 см пыли" (In Search We Trust) "У нас никто никуда не спешит"
Me For You - http://me-4u.com
It is currently 19 Nov 2019

All times are UTC + 3 hours

Spoiler
Chat - temporary registration for foreign users (please leave your application here)







Post new topic Reply to topic  [ 179 posts ]  Go to page 1, 2, 3, 4, 5 ... 9  Next
Author Message
 
PostPosted: 13 Jan 2016 
\m/ 80 см сала \m/
User avatar
Joined: 12 Mar 2012
Posts: 2590
Age: 26
Name: Nick
Image
Viking - Do Or Die (1988)
1. Warlord 4:09
2. Hellbound 2:37
3. Militia Of Death 2:45
4. Prelude/Scavenger 3:55
5. Valhalla 3:24
6. Burning From Within 3:42
7. Berserker 3:43
8. Killer Unleashed 4:09
9. Do Or Die 4:07

Собственно, вот: https://yadi.sk/mail/?hash=5Lju9xbzybVz ... HuigHq0%3D
Было скачано с ваты где-то полгода назад. Согласно данным релизера, рип из двухдискового сплита-самиздата 2013 года Metal Versus Straw (https://www.musik-sammler.de/media/867447/). Насколько я помню, были замечены виниловые щелчки - могу ошибаться, просьба переслушать и проверить. Сравнить с бутлегом тоже пока не могу. Ах да, рип потрековый - вата же, звиняйте :pardon:

_________________
1990 AUROPHON BRAINSTORM (Germany) - lossless
1994 MAUSOLEUM CLASSIX (Belgium-Germany) - lossless
1998 VA - GRIM HARVEST - Complete Metal Massacre Volumes I-XII


Top
 Profile  
 
 
PostPosted: 13 Jan 2016 
Хиппей (support team)
User avatar
Joined: 30 Jul 2007
Posts: 115593
Lоcаtion: Киев (Kyiv, UA)
Age: 46
Name: Andrey
:thanx:

mirror: iFolder l Narod l M-Cloud

_________________


Top
 Profile E-mail  
 
 
PostPosted: 13 Jan 2016 
\m/ 80 см сала \m/
User avatar
Joined: 12 Mar 2012
Posts: 2590
Age: 26
Name: Nick
Для любителей картиношек и цифирек. Лог, к слову, в текстовом документе кривой как кетайская сабля, но на форуме норм смотрится :scratch:
Image Image

foo_dr
Code:
foobar2000 1.3.5 / Dynamic Range Meter 1.1.1
log date: 2016-01-13 21:50:30

--------------------------------------------------------------------------------
Analyzed: Viking / Do Or Die
--------------------------------------------------------------------------------

DR         Peak         RMS     Duration Track
--------------------------------------------------------------------------------
DR7        0.00 dB    -7.55 dB      4:09 01-Warlord
DR6        0.00 dB    -7.48 dB      2:37 02-Hellbound
DR7        0.00 dB    -7.85 dB      2:45 03-Militia of Death
DR7        0.00 dB    -7.84 dB      3:55 04-Prelude/Scavenger
DR7        0.00 dB    -7.89 dB      3:24 05-Valhalla
DR7        0.00 dB    -7.68 dB      3:42 06-Burning From Within
DR7        0.00 dB    -7.81 dB      3:43 07-Berserker
DR6        0.00 dB    -7.91 dB      4:09 08-Killer Unleashed
DR7        0.00 dB    -8.11 dB      4:07 09-Do or Die
--------------------------------------------------------------------------------

Number of tracks:  9
Official DR value: DR7

Samplerate:        44100 Hz
Channels:          2
Bits per sample:   16
Bitrate:           1007 kbps
Codec:             FLAC
================================================================================


log
Code:
X Lossless Decoder version 20121222 (142.2)

XLD extraction logfile from 2013-09-26 21:11:55 -0700

Viking / Do Or Die

Used drive : OPTIARC DVD RW AD-5970H (revision 3APH)
Media type : Pressed CD

Ripper mode             : XLD Secure Ripper
Disable audio cache     : OK for the drive with a cache less than 1375KiB
Make use of C2 pointers : NO
Read offset correction  : 48
Max retry count         : 20
Gap status              : Analyzed, Appended

TOC of the extracted CD
     Track |   Start  |  Length  | Start sector | End sector
    ---------------------------------------------------------
        1  | 00:00:00 | 04:08:39 |         0    |    18638   
        2  | 04:08:39 | 02:37:36 |     18639    |    30449   
        3  | 06:46:00 | 02:44:53 |     30450    |    42802   
        4  | 09:30:53 | 03:54:64 |     42803    |    60416   
        5  | 13:25:42 | 03:23:57 |     60417    |    75698   
        6  | 16:49:24 | 03:41:68 |     75699    |    92341   
        7  | 20:31:17 | 03:42:48 |     92342    |   109039   
        8  | 24:13:65 | 04:09:07 |    109040    |   127721   
        9  | 28:22:72 | 04:06:67 |    127722    |   146238   

AccurateRip Summary
    Disc not found in AccurateRip DB.

All Tracks
    Album gain               : -11.05 dB
    Peak                     : 1.000000
    Statistics
        Read error                           : 0
        Jitter error (maybe fixed)           : 0
        Retry sector count                   : 0
        Damaged sector count                 : 0

Track 01
    Filename : /Users/sarah_525/Music/Viking - Do Or Die (1986) [FLAC]/01 Warlord.flac
    Pre-gap length : 00:02:00

    Track gain               : -11.20 dB
    Peak                     : 1.000000
    CRC32 hash (test run)    : 219DDD51
    CRC32 hash               : 219DDD51
    CRC32 hash (skip zero)   : AB4846FB
    AccurateRip v1 signature : BDB2155C
    AccurateRip v2 signature : 4FCB96C1
        ->Track not present in AccurateRip database.
    Statistics
        Read error                           : 0
        Jitter error (maybe fixed)           : 0
        Retry sector count                   : 0
        Damaged sector count                 : 0

Track 02
    Filename : /Users/sarah_525/Music/Viking - Do Or Die (1986) [FLAC]/02 Hellbound.flac
    Pre-gap length : 00:00:68

    Track gain               : -12.06 dB
    Peak                     : 1.000000
    CRC32 hash (test run)    : 2CD1A622
    CRC32 hash               : 2CD1A622
    CRC32 hash (skip zero)   : B58B01BE
    AccurateRip v1 signature : D138A9C4
    AccurateRip v2 signature : 15F0F3A5
        ->Track not present in AccurateRip database.
    Statistics
        Read error                           : 0
        Jitter error (maybe fixed)           : 0
        Retry sector count                   : 0
        Damaged sector count                 : 0

Track 03
    Filename : /Users/sarah_525/Music/Viking - Do Or Die (1986) [FLAC]/03 Militia of Death.flac
    Pre-gap length : 00:00:68

    Track gain               : -10.17 dB
    Peak                     : 1.000000
    CRC32 hash (test run)    : C24163EB
    CRC32 hash               : C24163EB
    CRC32 hash (skip zero)   : 22A285CC
    AccurateRip v1 signature : FEF61F7F
    AccurateRip v2 signature : 2AD0A3B1
        ->Track not present in AccurateRip database.
    Statistics
        Read error                           : 0
        Jitter error (maybe fixed)           : 0
        Retry sector count                   : 0
        Damaged sector count                 : 0

Track 04
    Filename : /Users/sarah_525/Music/Viking - Do Or Die (1986) [FLAC]/04 Prelude/Scavenger.flac
    Pre-gap length : 00:00:68

    Track gain               : -10.93 dB
    Peak                     : 1.000000
    CRC32 hash (test run)    : CE440C28
    CRC32 hash               : CE440C28
    CRC32 hash (skip zero)   : EF45D032
    AccurateRip v1 signature : 06B3E0EB
    AccurateRip v2 signature : DADB61F5
        ->Track not present in AccurateRip database.
    Statistics
        Read error                           : 0
        Jitter error (maybe fixed)           : 0
        Retry sector count                   : 0
        Damaged sector count                 : 0

Track 05
    Filename : /Users/sarah_525/Music/Viking - Do Or Die (1986) [FLAC]/05 Valhalla.flac
    Pre-gap length : 00:00:68

    Track gain               : -11.05 dB
    Peak                     : 1.000000
    CRC32 hash (test run)    : E5FD17C2
    CRC32 hash               : E5FD17C2
    CRC32 hash (skip zero)   : 39D751B1
    AccurateRip v1 signature : DDD73E75
    AccurateRip v2 signature : 12D80726
        ->Track not present in AccurateRip database.
    Statistics
        Read error                           : 0
        Jitter error (maybe fixed)           : 0
        Retry sector count                   : 0
        Damaged sector count                 : 0

Track 06
    Filename : /Users/sarah_525/Music/Viking - Do Or Die (1986) [FLAC]/06 Burning From Within.flac
    Pre-gap length : 00:00:68

    Track gain               : -11.07 dB
    Peak                     : 1.000000
    CRC32 hash (test run)    : EB86B8CB
    CRC32 hash               : EB86B8CB
    CRC32 hash (skip zero)   : E305CD64
    AccurateRip v1 signature : 1DFC8D1D
    AccurateRip v2 signature : 099B2129
        ->Track not present in AccurateRip database.
    Statistics
        Read error                           : 0
        Jitter error (maybe fixed)           : 0
        Retry sector count                   : 0
        Damaged sector count                 : 0

Track 07
    Filename : /Users/sarah_525/Music/Viking - Do Or Die (1986) [FLAC]/07 Berserker.flac
    Pre-gap length : 00:00:68

    Track gain               : -11.54 dB
    Peak                     : 1.000000
    CRC32 hash (test run)    : 5517AB0A
    CRC32 hash               : 5517AB0A
    CRC32 hash (skip zero)   : 137FC3F5
    AccurateRip v1 signature : 574E0D70
    AccurateRip v2 signature : B78B30F4
        ->Track not present in AccurateRip database.
    Statistics
        Read error                           : 0
        Jitter error (maybe fixed)           : 0
        Retry sector count                   : 0
        Damaged sector count                 : 0

Track 08
    Filename : /Users/sarah_525/Music/Viking - Do Or Die (1986) [FLAC]/08 Killer Unleashed.flac
    Pre-gap length : 00:00:68

    Track gain               : -11.13 dB
    Peak                     : 1.000000
    CRC32 hash (test run)    : A562FD54
    CRC32 hash               : A562FD54
    CRC32 hash (skip zero)   : 3AB49C21
    AccurateRip v1 signature : 0963E6A6
    AccurateRip v2 signature : E27EA501
        ->Track not present in AccurateRip database.
    Statistics
        Read error                           : 0
        Jitter error (maybe fixed)           : 0
        Retry sector count                   : 0
        Damaged sector count                 : 0

Track 09
    Filename : /Users/sarah_525/Music/Viking - Do Or Die (1986) [FLAC]/09 Do or Die.flac
    Pre-gap length : 00:00:68

    Track gain               : -9.76 dB
    Peak                     : 1.000000
    CRC32 hash (test run)    : AB5E267B
    CRC32 hash               : AB5E267B
    CRC32 hash (skip zero)   : 6F9431E5
    AccurateRip v1 signature : 1FA526BA
    AccurateRip v2 signature : B4AD28E8
        ->Track not present in AccurateRip database.
    Statistics
        Read error                           : 0
        Jitter error (maybe fixed)           : 0
        Retry sector count                   : 0
        Damaged sector count                 : 0

No errors occurred

End of status report

_________________
1990 AUROPHON BRAINSTORM (Germany) - lossless
1994 MAUSOLEUM CLASSIX (Belgium-Germany) - lossless
1998 VA - GRIM HARVEST - Complete Metal Massacre Volumes I-XII


Top
 Profile  
 
 
PostPosted: 14 Jan 2016 
Хиппей (support team)
User avatar
Joined: 30 Jul 2007
Posts: 115593
Lоcаtion: Киев (Kyiv, UA)
Age: 46
Name: Andrey
Слушал 4-5 раз альбом в который раз, уже было решил его таки сюда :arrow: viewtopic.php?f=28&t=11600 добавлять в свой личный топ, но... Не-а, никак не пойму, чем он раньше и тем более, сейчас цепляет людей :vic:

Ща сделаю жуть - втыкну альбом послушать в наушниках. Не зря ж Ник его сюда вот залил и спектр вэйформовый показал? Или зря? :crazy:

_________________


Top
 Profile E-mail  
 
 
PostPosted: 14 Jan 2016 
Хиппей (support team)
User avatar
Joined: 30 Jul 2007
Posts: 115593
Lоcаtion: Киев (Kyiv, UA)
Age: 46
Name: Andrey
Scatterbrain wrote:
Ща сделаю жуть - втыкну альбом послушать в наушниках.

Аааааааааааааааааааааааааааааааааааааааааааааа :shok: :shok: :shok: :esel: :esel: :esel: :esel:
На минуту ровно хватило меня. Рваные куски перепонок ореховых воздуха вылетают из ушей.
Не-не, сами слушайте такое в наушниках. Николай, спасибо за чистку ухов моих :crazy: :thanx:
Каша, перегрузы, амбивалентные сибилянты и прочие перефазинги дико парят.

_________________


Top
 Profile E-mail  
 
 
PostPosted: 14 Jan 2016 
Хиппей (support team)
User avatar
Joined: 30 Jul 2007
Posts: 115593
Lоcаtion: Киев (Kyiv, UA)
Age: 46
Name: Andrey
Everhard wrote:
Насколько я помню, были замечены виниловые щелчки

Хм, я даже этого не могу не услышать за звуками чавкающей каши :sp: Пардон :fingal:

_________________


Top
 Profile E-mail  
 
 
PostPosted: 14 Jan 2016 
Хиппей (support team)
User avatar
Joined: 30 Jul 2007
Posts: 115593
Lоcаtion: Киев (Kyiv, UA)
Age: 46
Name: Andrey
Прикольно, но на одной колонке звучит альбом вполне благоухательно :kro:

_________________


Top
 Profile E-mail  
 
 
PostPosted: 14 Jan 2016 
Рарник и трушник
User avatar
Joined: 25 Dec 2009
Posts: 8815
Lоcаtion: Москва
Age: 54
Name: Виталий
Scatterbrain wrote:
амбивалентные сибилянты и прочие перефазинги


:nunu: :nunu: :nunu: :nunu: :nunu: :benya: :benya: :benya: :benya: :benya: :meloman: :meloman: :meloman: :meloman: :lob: :lob: :lob: :lob:


Top
 Profile  
 
 
PostPosted: 14 Jan 2016 
Хиппей (support team)
User avatar
Joined: 30 Jul 2007
Posts: 115593
Lоcаtion: Киев (Kyiv, UA)
Age: 46
Name: Andrey
Quote:
Решили Пятачок с Винипухом меду поесть. А дупло то высоко. Пятачок сбегал принес воздушный шарик, а Винипух стал надувать. Дует, дует.
Шар все больше и больше, уже больше самого Пуха. Тут шарик кааак лопнет. Винипуху рот от уха до уха разорвало, зубы повыбивало, одни кровавые ошметки висят.
Пух стоит в шоке, глаза выпучил, а Пятачок ему (обижено):
- Тебе смешно, Винни, а мне ушки заложило.

_________________


Top
 Profile E-mail  
 
 
PostPosted: 14 Jan 2016 
5-speed satisfactor
User avatar
Joined: 16 Feb 2009
Posts: 3778
Lоcаtion: New York, USA
Age: 41
Name: Leonid
:benya: :benya: :benya: :benya: :nunu: :nunu: :nunu: :true:

Анекдот зачет!

_________________
Death rules! Metal to all who oppose!


Top
 Profile  
 
 
PostPosted: 15 Jan 2016 
5-speed satisfactor
User avatar
Joined: 16 Feb 2009
Posts: 3778
Lоcаtion: New York, USA
Age: 41
Name: Leonid
Я не понимаю Колю... Ну зачем рыться в говне? Есть оцифровка Ревичи, которая в колонках звучит очень даже не плохо. Еще раз убедился.... Сибилянит только в наушниках...

А эти громкие говномастеры... зачем?

Ну я как нибудь возьму винил. Либо я либо Виталий чифирнем.

_________________
Death rules! Metal to all who oppose!


Top
 Profile  
 
 
PostPosted: 15 Jan 2016 
Генеральный thrasher
User avatar
Joined: 03 Oct 2008
Posts: 3743
Lоcаtion: Ханты-Мансийский АО
Age: 44
Name: Сергей
Была у меня мысль взять это издание,да передумал.Ещё бразильский лейбл Urubuz Records переиздавал оба альбома.Но не думаю,что и там что-то нормальное по звуку.


Top
 Profile  
 
 
PostPosted: 15 Jan 2016 
Рарник и трушник
User avatar
Joined: 25 Dec 2009
Posts: 8815
Lоcаtion: Москва
Age: 54
Name: Виталий
metaleonid wrote:
Есть оцифровка Ревичи, которая в колонках звучит очень даже не плохо. Еще раз убедился.... Сибилянит только в наушниках...

СуСаныч!!! Ау-ау!!! Ты где!!! :benya: :benya: :benya: :benya: :benya: :benya: :true: :true: :true: :true: :nunu: :nunu: :nunu: :nunu: :nunu:
А бились-то, бились со мной... э..э..грудями, девочки. Клялись... э..э.. разными частями тела... :benya: :benya: :benya: :nunu: :nunu: :nunu:


Last edited by Vitaly65 on 15 Jan 2016, edited 1 time in total.

Top
 Profile  
 
 
PostPosted: 15 Jan 2016 
Хиппей (support team)
User avatar
Joined: 30 Jul 2007
Posts: 115593
Lоcаtion: Киев (Kyiv, UA)
Age: 46
Name: Andrey
metaleonid wrote:
Я не понимаю Колю...

А рип то этот слушал?

_________________


Top
 Profile E-mail  
 
 
PostPosted: 15 Jan 2016 
Хиппей (support team)
User avatar
Joined: 30 Jul 2007
Posts: 115593
Lоcаtion: Киев (Kyiv, UA)
Age: 46
Name: Andrey
Scatterbrain wrote:
Прикольно, но на одной колонке звучит альбом вполне благоухательно :kro:

metaleonid wrote:
Есть оцифровка Ревичи, которая в колонках звучит очень даже не плохо.

Лёня, а через мобилку не пробовал слушать? :kro:

_________________


Top
 Profile E-mail  
 
 
PostPosted: 15 Jan 2016 
Доктор энтомологии
User avatar
Joined: 22 Jan 2009
Posts: 9962
Lоcаtion: Даугавпилс
Age: 44
Name: Алексей
Охренеть, уже винилы додумались на мобилках слушать :shok:


Top
 Profile  
 
 
PostPosted: 15 Jan 2016 
Хиппей (support team)
User avatar
Joined: 30 Jul 2007
Posts: 115593
Lоcаtion: Киев (Kyiv, UA)
Age: 46
Name: Andrey
Ха. На мобилках уже и поговорить можно с другими мобильчанами :kro:

_________________


Top
 Profile E-mail  
 
 
PostPosted: 15 Jan 2016 
Доктор энтомологии
User avatar
Joined: 22 Jan 2009
Posts: 9962
Lоcаtion: Даугавпилс
Age: 44
Name: Алексей
Я редко мобилкой пользуюсь, хоть и лежит в штанах. Мне наверное звонют пару раз в две недели, но зато я люблю высылать смс - по 6-8 штук в неделю. Еще спам приходит из всяких баров-ресторанов, да из ювелирного магазина задолбали скидки предлагать (раз лшь дешманские подешевши серебряные кольца обручальные там брал). Мне нравится использовать мобильник как будильник, календарик и фонарик.


Top
 Profile  
 
 
PostPosted: 15 Jan 2016 
Partisanen - nicht kapitulieren!!
User avatar
Joined: 25 Dec 2011
Posts: 7184
Lоcаtion: партизанские леса
Age: 47
Name: Владимир
Охренеть, уже винилы додумались на мобилках слушать :shok:

а что тут такого? практически все плееры на андроиде спокойно lossless читают...

_________________
One more beer and Heavy Metal and I'm just fine!
старовер, куле... слово "блин" - до сих пор через Ъ говорю


Top
 Profile E-mail  
 
 
PostPosted: 15 Jan 2016 
Доктор энтомологии
User avatar
Joined: 22 Jan 2009
Posts: 9962
Lоcаtion: Даугавпилс
Age: 44
Name: Алексей
Прогресс на месте не стоит :lob:


Top
 Profile  
 
Display posts from previous:  Sort by  
Post new topic Reply to topic  [ 179 posts ]  Go to page 1, 2, 3, 4, 5 ... 9  Next

All times are UTC + 3 hours


Who is online

Users browsing this forum: No registered users and 1 guest


You cannot post new topics in this forum
You cannot reply to topics in this forum
You cannot edit your posts in this forum
You cannot delete your posts in this forum
You cannot post attachments in this forum

Search for:
Яндекс.Метрика
Powered by phpBB © 2000, 2002, 2005, 2007 phpBB Group