\m/ 80's metal \m/

Информационно-аналитический форум "80 см пыли" (In Search We Trust) "У нас никто никуда не спешит"
Me For You - http://me-4u.com
It is currently 13 Dec 2019

All times are UTC + 3 hours

Spoiler
Chat - temporary registration for foreign users (please leave your application here)







Post new topic Reply to topic  [ 4 posts ] 
Author Message
 
PostPosted: 18 Nov 2015 
Хиппей (support team)
User avatar
Joined: 30 Jul 2007
Posts: 116105
Lоcаtion: Киев (Kyiv, UA)
Age: 46
Name: Andrey
Urchin - 1980 - High Roller (comp.) [flac]

Image

    Side A
    1. Keeping It Mellow - 04:22
    2. Life in the City - 04:46
    3. Watch Me Walk Away - 03:54
    4. Countdown - 05:10
    Side B
    5. Lifetime - 05:01
    6. The Late Show - 04:47
    7. My Lady - 08:07
    8. Animals - 03:50

    TPT: 39:57

mirror: iFolder l Narod l M-Cloud

Source: http://rutracker.org/forum/viewtopic.php?t=3719060

log
TITLE "High Roller"
PERFORMER "Urchin"
FILE "High Roller p.1.flac" WAVE
TRACK 01 AUDIO
TITLE "Keeping It Mellow"
PERFORMER "Urchin"
INDEX 01 00:00:00
TRACK 02 AUDIO
TITLE "Life In The City"
PERFORMER "Urchin"
INDEX 01 04:22:44
TRACK 03 AUDIO
TITLE "Watch Me Walk Away"
PERFORMER "Urchin"
INDEX 01 09:09:62
TRACK 04 AUDIO
TITLE "Countdown"
PERFORMER "Urchin"
INDEX 01 13:04:18

FILE "High Roller p.2.flac" WAVE
TRACK 05 AUDIO
TITLE "Lifetime"
PERFORMER "Urchin"
INDEX 01 00:00:00
TRACK 06 AUDIO
TITLE "The Late Show"
PERFORMER "Urchin"
INDEX 01 05:02:00
TRACK 07 AUDIO
TITLE "My Lady"
PERFORMER "Urchin"
INDEX 01 09:50:71
TRACK 08 AUDIO
TITLE "Animals"
PERFORMER "Urchin"
INDEX 01 17:56:80


Если не ошибаюсь, это первая группа Эдриана Смита из Iron Maiden.
Играют здесь ребята старенький (но на то время крепкий и современный хард-рок) с ужё примесью "Новой британской волны хэви мэтала".
Играют обычно, без изысков и особых хитов.

6+/10

Товарищ Оксана с дружественного форума http://forum.darksage.ru/forum/80-20806-1 явно нам сама дальше пояснит, какие альбомы (лоси) у неё в розыске. Просим-просим :thanx:

_________________


Top
 Profile E-mail  
 
 
PostPosted: 18 Nov 2015 
Труъ
User avatar
Joined: 28 Mar 2013
Posts: 185
Lоcаtion: Parana-Brazil
Age: 54
Name: Pedro Gabriel Lanza
:thanx:


Top
 Profile E-mail  
 
 
PostPosted: 07 Mar 2016 
Труъ
User avatar
Joined: 28 Mar 2013
Posts: 185
Lоcаtion: Parana-Brazil
Age: 54
Name: Pedro Gabriel Lanza
A posting of their 2004 compilation on FLAC from High Roller Records here will be great also. Some chance? Seem this vinyl is ended to sale in HHR.


Top
 Profile E-mail  
 
 
PostPosted: 07 Mar 2016 
Хиппей (support team)
User avatar
Joined: 30 Jul 2007
Posts: 116105
Lоcаtion: Киев (Kyiv, UA)
Age: 46
Name: Andrey
Plz link on HHR?

_________________


Top
 Profile E-mail  
 
Display posts from previous:  Sort by  
Post new topic Reply to topic  [ 4 posts ] 

All times are UTC + 3 hours


Who is online

Users browsing this forum: No registered users and 1 guest


You cannot post new topics in this forum
You cannot reply to topics in this forum
You cannot edit your posts in this forum
You cannot delete your posts in this forum
You cannot post attachments in this forum

Search for:
Яндекс.Метрика
Powered by phpBB © 2000, 2002, 2005, 2007 phpBB Group