\m/ 80's metal \m/

Информационно-аналитический форум "80 см пыли" (In Search We Trust) "У нас никто никуда не спешит"
Me For You - http://me-4u.com
It is currently 20 Nov 2019

All times are UTC + 3 hours

Spoiler
Chat - temporary registration for foreign users (please leave your application here)







Post new topic Reply to topic  [ 31 posts ]  Go to page Previous  1, 2
Author Message
 
PostPosted: 01 Feb 2015 
Хиппей (support team)
User avatar
Joined: 30 Jul 2007
Posts: 115606
Lоcаtion: Киев (Kyiv, UA)
Age: 46
Name: Andrey
metaleonid wrote:
А... Это ты все добавляешь?

Не, ну не только я :crazy:
metaleonid wrote:
Ну найди мне кассетку, я залосю.

Кассетки не видал. Винил по ибэям иногда бродит от сотки ваших денех :pardon:

_________________


Top
 Profile E-mail  
 
 
PostPosted: 01 Feb 2015 
Хиппей (support team)
User avatar
Joined: 30 Jul 2007
Posts: 115606
Lоcаtion: Киев (Kyiv, UA)
Age: 46
Name: Andrey
О, вот, почти халявка US $39.99 http://www.ebay.com/itm/V-A-NEW-YORK-ME ... 1243316391

_________________


Top
 Profile E-mail  
 
 
PostPosted: 01 Feb 2015 
Хиппей (support team)
User avatar
Joined: 30 Jul 2007
Posts: 115606
Lоcаtion: Киев (Kyiv, UA)
Age: 46
Name: Andrey
Упс, это первый :pardon:
Ща..

_________________


Top
 Profile E-mail  
 
 
PostPosted: 01 Feb 2015 
Рарник и трушник
User avatar
Joined: 25 Dec 2009
Posts: 8815
Lоcаtion: Москва
Age: 54
Name: Виталий
Спасибо, Леонид!


Top
 Profile  
 
 
PostPosted: 01 Feb 2015 
Хиппей (support team)
User avatar
Joined: 30 Jul 2007
Posts: 115606
Lоcаtion: Киев (Kyiv, UA)
Age: 46
Name: Andrey
Не, не умею я искать по аукционам :vic:

_________________


Top
 Profile E-mail  
 
 
PostPosted: 04 Feb 2015 
5-speed satisfactor
User avatar
Joined: 16 Feb 2009
Posts: 3778
Lоcаtion: New York, USA
Age: 41
Name: Leonid
So has anyone listened to it yet?

_________________
Death rules! Metal to all who oppose!


Top
 Profile  
 
 
PostPosted: 14 Feb 2015 
Power Metal Maniac
User avatar
Joined: 09 Aug 2008
Posts: 6959
Lоcаtion: Москва
Age: 41
Name: Егор
:thanx:

_________________
Long Live Metal!


Top
 Profile  
 
 
PostPosted: 13 Mar 2015 
Хиппей (support team)
User avatar
Joined: 30 Jul 2007
Posts: 115606
Lоcаtion: Киев (Kyiv, UA)
Age: 46
Name: Andrey
:arrow: http://rutracker.org/forum/viewtopic.ph ... 7#67121147 обновите ваши лоси :cow:

Image Image

mirror: iFolder l Narod l M-Cloud

cue
REM GENRE Heavy Metal
REM DATE 1984
REM COMMENT "Rip from Japan LP King Records K25P-547"
PERFORMER "Various Artists"
TITLE "New York Metal - 84"
FILE "VA - 1984 - New York Metal - 84.flac" WAVE
TRACK 01 AUDIO
TITLE "Whore"
PERFORMER "Warhead"
INDEX 01 00:00:00
TRACK 02 AUDIO
TITLE "Still Of The Night"
PERFORMER "Cities"
INDEX 01 03:05:05
TRACK 03 AUDIO
TITLE "Live To Rock"
PERFORMER "Takashi"
INDEX 01 07:25:13
TRACK 04 AUDIO
TITLE "Guitar War-84"
PERFORMER "Virgin Steele"
INDEX 01 12:07:19
TRACK 05 AUDIO
TITLE "Virgin Steele"
PERFORMER "Virgin Steele"
INDEX 01 15:57:06
TRACK 06 AUDIO
TITLE "Day Zero"
PERFORMER "Teazer"
INDEX 01 20:37:64
TRACK 07 AUDIO
TITLE "Damn Cheater"
PERFORMER "Blacklace"
INDEX 01 24:31:27
TRACK 08 AUDIO
TITLE "Feel The Fire"
PERFORMER "Overkill"
INDEX 01 28:27:35
TRACK 09 AUDIO
TITLE "Journey For Light"
PERFORMER "Deathslayer"
INDEX 01 34:24:53
TRACK 10 AUDIO
TITLE "We Rule The Night"
PERFORMER "Frigid Bich"
INDEX 01 38:17:60

_________________


Top
 Profile E-mail  
 
 
PostPosted: 13 Mar 2015 
Хиппей (support team)
User avatar
Joined: 30 Jul 2007
Posts: 115606
Lоcаtion: Киев (Kyiv, UA)
Age: 46
Name: Andrey
So has anyone listened to it yet?

Not yet. No time, no money :cry:

_________________


Top
 Profile E-mail  
 
 
PostPosted: 17 Apr 2015 
5-speed satisfactor
User avatar
Joined: 16 Feb 2009
Posts: 3778
Lоcаtion: New York, USA
Age: 41
Name: Leonid


Нет, Андрюша. Марке - это не я. Но он классный пацан. Дал мне скорости:

http://rutracker.org/forum/viewtopic.ph ... 1#64040031

Я - metaleonid.

_________________
Death rules! Metal to all who oppose!


Top
 Profile  
 
 
PostPosted: 18 Apr 2015 
Хиппей (support team)
User avatar
Joined: 30 Jul 2007
Posts: 115606
Lоcаtion: Киев (Kyiv, UA)
Age: 46
Name: Andrey
metaleonid wrote:
Но он классный пацан. Дал мне скорости

:thanx: Вижу :dance:

_________________


Top
 Profile E-mail  
 
Display posts from previous:  Sort by  
Post new topic Reply to topic  [ 31 posts ]  Go to page Previous  1, 2

All times are UTC + 3 hours


Who is online

Users browsing this forum: No registered users and 3 guests


You cannot post new topics in this forum
You cannot reply to topics in this forum
You cannot edit your posts in this forum
You cannot delete your posts in this forum
You cannot post attachments in this forum

Search for:
Яндекс.Метрика
cron
Powered by phpBB © 2000, 2002, 2005, 2007 phpBB Group