\m/ 80's metal \m/

Информационно-аналитический форум "80 см пыли" (In Search We Trust) "У нас никто никуда не спешит"
Me For You - http://me-4u.com
It is currently 11 Dec 2019

All times are UTC + 3 hours

Spoiler
Chat - temporary registration for foreign users (please leave your application here)







Post new topic Reply to topic  [ 1 post ] 
Author Message
 
PostPosted: 14 Apr 2014 
Хиппей (support team)
User avatar
Joined: 30 Jul 2007
Posts: 116073
Lоcаtion: Киев (Kyiv, UA)
Age: 46
Name: Andrey
Assassin - 1986 - The Upcoming Terror [flac] - vinyl rip by Revici

Image

mirror: Narod l M-Cloud

cue
REM GENRE "Heavy Metal"
REM DATE 1986
REM DISCID 6808A308
REM COMMENT "ExactAudioCopy v0.99pb5"
PERFORMER "Assassin"
TITLE "The Upcoming Terror"
FILE "Assassin - The Upcoming Terror.flac" WAVE
TRACK 01 AUDIO
TITLE "Forbidden Reality"
PERFORMER "Assassin"
INDEX 01 00:00:00
TRACK 02 AUDIO
TITLE "Nemesis"
PERFORMER "Assassin"
INDEX 00 05:34:62
INDEX 01 05:34:63
TRACK 03 AUDIO
TITLE "Fight (To Stop The Tyranny)"
PERFORMER "Assassin"
INDEX 00 09:26:31
INDEX 01 09:26:32
TRACK 04 AUDIO
TITLE "The Last Man"
PERFORMER "Assassin"
INDEX 00 11:55:43
INDEX 01 11:55:44
TRACK 05 AUDIO
TITLE "Assassin"
PERFORMER "Assassin"
INDEX 00 18:50:09
INDEX 01 18:50:10
TRACK 06 AUDIO
TITLE "Holy Terror"
PERFORMER "Assassin"
INDEX 00 24:46:68
INDEX 01 24:46:69
TRACK 07 AUDIO
TITLE "Bullets"
PERFORMER "Assassin"
INDEX 00 29:44:34
INDEX 01 29:44:35
TRACK 08 AUDIO
TITLE "Speed Of Light"
PERFORMER "Assassin"
INDEX 00 33:58:54
INDEX 01 33:58:55


Assassin - 1988 - Interstellar Experience [flac] - vinyl rip by Revici

Image

mirror: Narod l M-Cloud

cue
REM GENRE "Heavy Metal"
REM DATE 1988
REM DISCID 6006A208
REM COMMENT "ExactAudioCopy v0.99pb5"
PERFORMER "Assassin"
TITLE "Interstellar Experience"
FILE "Assassin - Interstellar Experience.flac" WAVE
TRACK 01 AUDIO
TITLE "Abstract War"
PERFORMER "Assassin"
INDEX 01 00:00:00
TRACK 02 AUDIO
TITLE "AGD"
PERFORMER "Assassin"
INDEX 00 05:16:12
INDEX 01 05:16:13
TRACK 03 AUDIO
TITLE "A Message To Survive"
PERFORMER "Assassin"
INDEX 00 09:30:35
INDEX 01 09:30:36
TRACK 04 AUDIO
TITLE "Pipeline"
PERFORMER "Assassin"
INDEX 00 12:49:50
INDEX 01 12:49:51
TRACK 05 AUDIO
TITLE "Resolution 588"
PERFORMER "Assassin"
INDEX 00 14:15:07
INDEX 01 14:15:08
TRACK 06 AUDIO
TITLE "Junk Food"
PERFORMER "Assassin"
INDEX 00 18:34:32
INDEX 01 18:34:33
TRACK 07 AUDIO
TITLE "Interstellar Experience"
PERFORMER "Assassin"
INDEX 00 22:13:72
INDEX 01 22:13:73
TRACK 08 AUDIO
TITLE "Baka"
PERFORMER "Assassin"
INDEX 00 25:49:28
INDEX 01 25:49:29


Как-то кто-то давно просил перезалить :pardon:

Источник: http://rutracker.org/forum/viewtopic.php?t=3880044 :thanx:

_________________


Top
 Profile E-mail  
 
Display posts from previous:  Sort by  
Post new topic Reply to topic  [ 1 post ] 

All times are UTC + 3 hours


Who is online

Users browsing this forum: No registered users and 1 guest


You cannot post new topics in this forum
You cannot reply to topics in this forum
You cannot edit your posts in this forum
You cannot delete your posts in this forum
You cannot post attachments in this forum

Search for:
Яндекс.Метрика
Powered by phpBB © 2000, 2002, 2005, 2007 phpBB Group