\m/ 80's metal \m/

Информационно-аналитический форум "80 см пыли" (In Search We Trust) "У нас никто никуда не спешит"
Me For You - http://me-4u.com
It is currently 10 Dec 2019

All times are UTC + 3 hours

Spoiler
Chat - temporary registration for foreign users (please leave your application here)







Post new topic Reply to topic  [ 1 post ] 
Author Message
 
PostPosted: 13 Apr 2014 
Хиппей (support team)
User avatar
Joined: 30 Jul 2007
Posts: 116070
Lоcаtion: Киев (Kyiv, UA)
Age: 46
Name: Andrey
Toxoplasma - 1983 - Toxoplasma [flac] - vinyl rip by Revici

Image Image

1.Vakuum
2.S.O.S.
3.Stefan's
4.1981
5.Ordinäre Liebe
6.Träumer
7.Asozial
8.Führer
9.Polizeistaat
10.Paß Dich An
11.Danke
12.Teenage Frust
13.Heile Welt
14.Hardrockgerät
15.Weltverbesserer
16.Wir Warten

mirror: Narod l M-Cloud

cue
REM GENRE Deutsch-Punk
REM DATE 1983
PERFORMER "Toxoplasma"
TITLE "Toxoplasma"
FILE "Toxoplasma - Toxoplasma.flac" WAVE
TRACK 01 AUDIO
TITLE "Vakuum"
INDEX 01 00:00:00
TRACK 02 AUDIO
TITLE "S.O.S"
INDEX 01 01:56:09
TRACK 03 AUDIO
TITLE "Stefan's"
INDEX 01 03:44:17
TRACK 04 AUDIO
TITLE "1981"
INDEX 01 05:42:12
TRACK 05 AUDIO
TITLE "Ordinare Liebe"
INDEX 01 07:24:05
TRACK 06 AUDIO
TITLE "Traumer"
INDEX 01 09:04:57
TRACK 07 AUDIO
TITLE "Asozial"
INDEX 01 11:07:43
TRACK 08 AUDIO
TITLE "Fuhrer"
INDEX 01 13:18:64
TRACK 09 AUDIO
TITLE "Polizeistaat"
INDEX 01 15:01:50
TRACK 10 AUDIO
TITLE "Pa? Dich An"
INDEX 01 17:00:13
TRACK 11 AUDIO
TITLE "Danke"
INDEX 01 18:16:40
TRACK 12 AUDIO
TITLE "Teenage Frust"
REM DATE
INDEX 01 19:36:09
TRACK 13 AUDIO
TITLE "Heile Welt"
INDEX 01 20:55:45
TRACK 14 AUDIO
TITLE "Hardrockgerat"
INDEX 01 22:20:24
TRACK 15 AUDIO
TITLE "Weltverbesserer"
INDEX 01 24:22:16
TRACK 16 AUDIO
TITLE "Wir Warten Auf Dich"
INDEX 01 25:38:16


Toxoplasma - 1990 - Monsters Of Bullshit [flac] - vinyl=>tape rip by Revici

Image

A1. Fönlied - 02:43
A2. Bunkerparty - 01:44
A3. Razzia - 04:15

B1. No Mercy - 02:57
B2. Erwin - 02:35
B3. Asozial - 02:19

mirror: Narod l M-Cloud

Revici wrote
О релизе: данный альбом Toxoplasma безуспешно разыскивается ценителями подобной музыки - он не издавался на компакт-диске. На трекере Toxoplasma присутствует только в жутком качестве МР3, а этого релиза нет вообще ни в каком виде. Я самолично записал эту пластинку на кассету в далеком 1990 году - с тех пор она, как и многие другие редчайшие записи, хранится у меня в шкафу. Предлагаемый вашему вниманию релиз представляет собой оцифровку этой кассетной записи, выполненную в профессиональных условиях. Во-первых, запись на кассету в то время (1990 год) была выполнена на кассетной деке Aiwa AD-F80 без какого-либо шумопонижения. Во-вторых, запись превосходно сохранилась - единственным ее недостатком является слышимый местами шум пленки и шелест пластинки. В-третьих, воспроизведение записи для целей оцифровки было осуществлено на профессиональной двухблочной кассетной деке Technics RS-9900US с тщательным контролем скорости воспроизведения


cue
REM DISCID 4103E306
REM COMMENT "ExactAudioCopy v0.99pb5"
REM GENRE Deutsch-Punk
REM DATE 1990
REM Revici_MC(VINYL)RIP
REM LP Aggressive Rockproduktionen, Germany
PERFORMER "Toxoplasma"
TITLE "Monsters Of Bullshit"
FILE "Toxoplasma - Monsters Of Bullshit.flac" WAVE
TRACK 01 AUDIO
TITLE "Fonlied"
PERFORMER "Toxoplasma"
INDEX 01 00:00:00
TRACK 02 AUDIO
TITLE "Bunkerparty"
PERFORMER "Toxoplasma"
INDEX 01 02:43:38
TRACK 03 AUDIO
TITLE "Razzia"
PERFORMER "Toxoplasma"
INDEX 01 04:28:06
TRACK 04 AUDIO
TITLE "No Mercy"
PERFORMER "Toxoplasma"
INDEX 01 08:43:39
TRACK 05 AUDIO
TITLE "Erwin"
PERFORMER "Toxoplasma"
INDEX 01 11:40:50
TRACK 06 AUDIO
TITLE "Asozial"
PERFORMER "Toxoplasma"
INDEX 01 14:16:08


Gfyrb pjq! :true:

Стырено: :arrow: http://rutracker.org/forum/viewtopic.php?t=3409252 :thanx:

_________________


Top
 Profile E-mail  
 
Display posts from previous:  Sort by  
Post new topic Reply to topic  [ 1 post ] 

All times are UTC + 3 hours


Who is online

Users browsing this forum: No registered users and 2 guests


You cannot post new topics in this forum
You cannot reply to topics in this forum
You cannot edit your posts in this forum
You cannot delete your posts in this forum
You cannot post attachments in this forum

Search for:
Яндекс.Метрика
cron
Powered by phpBB © 2000, 2002, 2005, 2007 phpBB Group