\m/ 80's metal \m/

Информационно-аналитический форум "80 см пыли" (In Search We Trust) "У нас никто никуда не спешит"
Me For You - http://me-4u.com
It is currently 09 Dec 2019

All times are UTC + 3 hours

Spoiler
Chat - temporary registration for foreign users (please leave your application here)







Post new topic Reply to topic  [ 2 posts ] 
Author Message
 
PostPosted: 13 Apr 2014 
Хиппей (support team)
User avatar
Joined: 30 Jul 2007
Posts: 116023
Lоcаtion: Киев (Kyiv, UA)
Age: 46
Name: Andrey
AC/DC - 1977 - Vintage Voltage [flac] - vinyl rip by Revici

Image Image

A1. Live Wire - 05:48
A2. Problem Child - 04:24
A3. High Voltage - 05:39
A4. Hell Ain't A Bad Place To Be - 03:57
A5. Dog Eat Dog - 04:13

B1. The Jack - 08:01
B2. Whole Lotta Rosie - 05:09
B3. Rocker - 06:01

Quote:
Жанр: Hard Rock
Год выпуска: 1989
Лейбл: Fatass-Kick-Records, #888907
Страна-производитель: Germany
Аудио кодек: FLAC
Тип рипа: image+.cue
Формат записи: 16/44.1
Формат раздачи: 16/44.1
Продолжительность: 43:11

http://www.discogs.com/ACDC-Vintage-Vol ... se/2879412

Заглотнулось отсюда: http://rutracker.org/forum/viewtopic.php?t=3603834 :thanx:

mirror: M-Cloud l Narod

Скачалось случайно :pardon:
Остальные альбомы, возможно, добавятся позже. Сами :lloo:

cue
REM GENRE "Hard Rock"
REM DATE 1977
REM DISCID 540A1F08
REM COMMENT "ExactAudioCopy v0.99pb5"
PERFORMER "AC/DC"
TITLE "Vintage Voltage"
FILE "ACDC - Vintage Voltage.flac" WAVE
TRACK 01 AUDIO
TITLE "Live Wire"
PERFORMER "AC/DC"
INDEX 01 00:00:00
TRACK 02 AUDIO
TITLE "Problem Child"
PERFORMER "AC/DC"
INDEX 01 05:48:15
TRACK 03 AUDIO
TITLE "High Voltage"
PERFORMER "AC/DC"
INDEX 01 10:12:23
TRACK 04 AUDIO
TITLE "Hell Ain't A Bad Place To Be"
PERFORMER "AC/DC"
INDEX 01 15:50:63
TRACK 05 AUDIO
TITLE "Dog Eat Dog"
PERFORMER "AC/DC"
INDEX 01 19:48:02
TRACK 06 AUDIO
TITLE "The Jack"
PERFORMER "AC/DC"
INDEX 01 24:00:48
TRACK 07 AUDIO
TITLE "Whole Lotta Rosie"
PERFORMER "AC/DC"
INDEX 01 32:01:64
TRACK 08 AUDIO
TITLE "Rocker"
PERFORMER "AC/DC"
INDEX 01 37:11:00

_________________


Top
 Profile E-mail  
 
 
PostPosted: 13 Apr 2014 
Partisanen - nicht kapitulieren!!
User avatar
Joined: 25 Dec 2011
Posts: 7213
Lоcаtion: партизанские леса
Age: 47
Name: Владимир
:thanx:
зерцало
mail.ru

_________________
One more beer and Heavy Metal and I'm just fine!
старовер, куле... слово "блин" - до сих пор через Ъ говорю


Top
 Profile E-mail  
 
Display posts from previous:  Sort by  
Post new topic Reply to topic  [ 2 posts ] 

All times are UTC + 3 hours


Who is online

Users browsing this forum: No registered users and 2 guests


You cannot post new topics in this forum
You cannot reply to topics in this forum
You cannot edit your posts in this forum
You cannot delete your posts in this forum
You cannot post attachments in this forum

Search for:
Яндекс.Метрика
Powered by phpBB © 2000, 2002, 2005, 2007 phpBB Group