\m/ 80's metal \m/

Информационно-аналитический форум "80 см пыли" (In Search We Trust) "У нас никто никуда не спешит"
Me For You - http://me-4u.com
It is currently 21 Aug 2019

All times are UTC + 3 hours

Spoiler
Chat - temporary registration for foreign users (please leave your application here)







Post new topic Reply to topic  [ 34 posts ]  Go to page 1, 2  Next
Author Message
 
PostPosted: 28 Jul 2013 
А может смените мне статус?..
User avatar
Joined: 02 Feb 2009
Posts: 999
Lоcаtion: из Тулы
Age: 45
Name: Максим
Dethrone - Let the Day Begin
Style: Thrash Metal
Year: 1989
Label: Poko Rekords, PÄLP 101

Image

1. Predator 04:31
2. Powermad 04:36
3. After the Day 04:35
4. Black Dawn 04:05
5. Last Respects 06:13 instrumental
6. Beyond the Wall 06:14
7. City of Silence 07:45
8. Hunter in the Dark 05:44
9. Withered 05:34

Let The Day Begin


Dethrone - The Decay of a Man
Style: Thrash Metal(with Funk influences)
Year: 1992
Label: Poko Rekords, PÄLP 124

Image

1. Hello the Voice 03:39
2. Father's Day 03:47
3. Shadowplay 06:46
4. Out Through the Blue...Into the Dark 02:33 instrumental
5. Censored Scenes 03:49
6. Block the Sun 04:40
7. The Decay 03:47
8. Confessions of a Madman 03:35
9. The Barrier Within 04:43

The Decay Of A Man



[0]mirror
Dethrone-Powermad / Black Dawn (single)
mirror: single[/0]

_________________
КМА


Last edited by overkiller on 28 Jul 2013, edited 1 time in total.

Top
 Profile  
 
 
PostPosted: 28 Jul 2013 
А может смените мне статус?..
User avatar
Joined: 28 Jul 2008
Posts: 990
Lоcаtion: Украина---Днепропетровск
Age: 45
Name: Александр
Когда то я за вторым альбомом безуспешно ганялся года два в инете хотя бы в мп3(правда прослушивание разочаровало) а тут смачненькая лосятинка
overkiller :thanx:

_________________
Музыка в которой я растворяюсь многих угнетает......


Top
 Profile  
 
 
PostPosted: 28 Jul 2013 
А может смените мне статус?..
User avatar
Joined: 02 Feb 2009
Posts: 999
Lоcаtion: из Тулы
Age: 45
Name: Максим
еще сделаю единственный их сингл

_________________
КМА


Top
 Profile  
 
 
PostPosted: 28 Jul 2013 
Хиппей (support team)
User avatar
Joined: 30 Jul 2007
Posts: 114020
Lоcаtion: Киев (Kyiv, UA)
Age: 46
Name: Andrey
:thanx:

_________________


Top
 Profile E-mail  
 
 
PostPosted: 28 Jul 2013 
А может смените мне статус?..
User avatar
Joined: 02 Feb 2009
Posts: 999
Lоcаtion: из Тулы
Age: 45
Name: Максим
Когда то я за вторым альбомом безуспешно ганялся года два в инете хотя бы в мп3(правда прослушивание разочаровало) а тут смачненькая лосятинка
overkiller :thanx:

а мне наоборот второй альбом больше нравится

_________________
КМА


Top
 Profile  
 
 
PostPosted: 28 Jul 2013 
Хиппей (support team)
User avatar
Joined: 30 Jul 2007
Posts: 114020
Lоcаtion: Киев (Kyiv, UA)
Age: 46
Name: Andrey
Макс, а стиль и год альбомов можешь указывать? :vic:
Не все ж знают, что это за группа.

_________________


Top
 Profile E-mail  
 
 
PostPosted: 28 Jul 2013 
А может смените мне статус?..
User avatar
Joined: 02 Feb 2009
Posts: 999
Lоcаtion: из Тулы
Age: 45
Name: Максим
Макс, а стиль и год альбомов можешь указывать? :vic:
Не все ж знают, что это за группа.

ооооооооо , извиняюсь
исправлю (просто уже забыл как оформлять все эти дела)

_________________
КМА


Top
 Profile  
 
 
PostPosted: 28 Jul 2013 
Хиппей (support team)
User avatar
Joined: 30 Jul 2007
Posts: 114020
Lоcаtion: Киев (Kyiv, UA)
Age: 46
Name: Andrey
overkiller wrote:
Thrash Metal(with Funk influences)

О! :true:

_________________


Top
 Profile E-mail  
 
 
PostPosted: 28 Jul 2013 
Труъ
User avatar
Joined: 27 Feb 2009
Posts: 186
Lоcаtion: Питер
Age: 52
Name: Олег
Спасибо ! :thanx:


Top
 Profile  
 
 
PostPosted: 28 Jul 2013 
Хиппей (support team)
User avatar
Joined: 30 Jul 2007
Posts: 114020
Lоcаtion: Киев (Kyiv, UA)
Age: 46
Name: Andrey
Начал слушать дебютник - пока забубенно :true:

Макс, еще, плиз, указывай, что ты винил не обратываешь чисткой, а то не все знают это :dance:

зы. Я пока еще не могу нормально в наушниках оценить качество рипа :fingal:

_________________


Top
 Profile E-mail  
 
 
PostPosted: 28 Jul 2013 
А может смените мне статус?..
User avatar
Joined: 02 Feb 2009
Posts: 999
Lоcаtion: из Тулы
Age: 45
Name: Максим
Начал слушать дебютник - пока забубенно :true:

Макс, еще, плиз, указывай, что ты винил не обратываешь чисткой, а то не все знают это :dance:


ну это же важно только для того кто будет слушать, а для того чтоб послушать надо скачать, а если скачал и послушал и нашел щелчки и песок и от этого не испортилось вчепятление....мне мои рипы нравятся :meloman:

зы. Я пока еще не могу нормально в наушниках оценить качество рипа :fingal:

у мя хорошие наушники, не дорогие , но меня устраивает то, в каком виде оттуда доносятся звуки :meloman: :true:

_________________
КМА


Top
 Profile  
 
 
PostPosted: 28 Jul 2013 
\m/ 80 см сала \m/
User avatar
Joined: 12 Mar 2012
Posts: 2590
Age: 26
Name: Nick
overkiller, :thanx:

Закуярил на быструю руку:
1989 - Let the Day Begin .cue | +
Code:
REM GENRE Thrash Metal
REM DATE 1989
PERFORMER "Dethrone (Fi)"
TITLE "Let the Day Begin (vinyl rip 16/44)"
FILE "01. Dethrone - A1 Predator.flac" WAVE
  TRACK 01 AUDIO
    TITLE "Predator"
    PERFORMER "Dethrone"
    INDEX 01 00:00:00
FILE "02. Dethrone - A2 Powermad.flac" WAVE
  TRACK 02 AUDIO
    TITLE "Powermad"
    PERFORMER "Dethrone"
    INDEX 01 00:00:00
FILE "03. Dethrone - A3 The Day After.flac" WAVE
  TRACK 03 AUDIO
    TITLE "...The Day After"
    PERFORMER "Dethrone"
    INDEX 01 00:00:00
FILE "04. Dethrone - A4 Black Dawn.flac" WAVE
  TRACK 04 AUDIO
    TITLE "Black Dawn"
    PERFORMER "Dethrone"
    INDEX 01 00:00:00
FILE "05. Dethrone - A5 Last Respects.flac" WAVE
  TRACK 05 AUDIO
    TITLE "Last Respects"
    PERFORMER "Dethrone"
    INDEX 01 00:00:00
FILE "06. Dethrone - B1 Beyond The Wall.flac" WAVE
  TRACK 06 AUDIO
    TITLE "Beyond the Wall"
    PERFORMER "Dethrone"
    INDEX 01 00:00:00
FILE "07. Dethrone - B2 City Of Silence.flac" WAVE
  TRACK 07 AUDIO
    TITLE "City of Silence"
    PERFORMER "Dethrone"
    INDEX 01 00:00:00
FILE "08. Dethrone - B3 Haunter In The Dark.flac" WAVE
  TRACK 08 AUDIO
    TITLE "Haunter in the Dark"
    PERFORMER "Dethrone"
    INDEX 01 00:00:00
FILE "09. Dethrone - B4 Withered.flac" WAVE
  TRACK 09 AUDIO
    TITLE "Withered"
    PERFORMER "Dethrone"
    INDEX 01 00:00:00

1992 - The Decay of a Man .cue | +
Code:
REM GENRE Thrash Metal
REM DATE 1992
PERFORMER "Dethrone (Fi)"
TITLE "The Decay of a Man (vinyl rip 16/44)"
FILE "01. Dethrone - A1 Hello the voice.flac" WAVE
  TRACK 01 AUDIO
    TITLE "Hello the voice"
    PERFORMER "Dethrone"
    INDEX 01 00:00:00
FILE "02. Dethrone - A2 Father' day.flac" WAVE
  TRACK 02 AUDIO
    TITLE "Father's day"
    PERFORMER "Dethrone"
    INDEX 01 00:00:00
FILE "03. Dethrone - A3 Shadowplay.flac" WAVE
  TRACK 03 AUDIO
    TITLE "Shadowplay"
    PERFORMER "Dethrone"
    INDEX 01 00:00:00
FILE "04. Dethrone - A4 Out through the blue.flac" WAVE
  TRACK 04 AUDIO
    TITLE "Out through the blue... into the dark"
    PERFORMER "Dethrone"
    INDEX 01 00:00:00
FILE "05. Dethrone - A5 Censored scenes.flac" WAVE
  TRACK 05 AUDIO
    TITLE "Censored Scenes"
    PERFORMER "Dethrone"
    INDEX 01 00:00:00
FILE "06. Dethrone - B1 Block the sun.flac" WAVE
  TRACK 06 AUDIO
    TITLE "Block the sun"
    PERFORMER "Dethrone"
    INDEX 01 00:00:00
FILE "07. Dethrone - B2 The decay.flac" WAVE
  TRACK 07 AUDIO
    TITLE "The Decay"
    PERFORMER "Dethrone"
    INDEX 01 00:00:00
FILE "08. Dethrone - B3 Confessions of a madman.flac" WAVE
  TRACK 08 AUDIO
    TITLE "Confessions of a madman"
    PERFORMER "Dethrone"
    INDEX 01 00:00:00
FILE "09. Dethrone - B4 The barrier within.flac" WAVE
  TRACK 09 AUDIO
    TITLE "The Barrier within"
    PERFORMER "Dethrone"
    INDEX 01 00:00:00

_________________
1990 AUROPHON BRAINSTORM (Germany) - lossless
1994 MAUSOLEUM CLASSIX (Belgium-Germany) - lossless
1998 VA - GRIM HARVEST - Complete Metal Massacre Volumes I-XII


Top
 Profile  
 
 
PostPosted: 28 Jul 2013 
Хиппей (support team)
User avatar
Joined: 30 Jul 2007
Posts: 114020
Lоcаtion: Киев (Kyiv, UA)
Age: 46
Name: Andrey
Эх, не успел я куй вложить в архив.... :fingal:

mirrors:

1989 - F-Bit l Narod

1992 - F-Bit l Narod

_________________


Top
 Profile E-mail  
 
 
PostPosted: 28 Jul 2013 
Хиппей (support team)
User avatar
Joined: 30 Jul 2007
Posts: 114020
Lоcаtion: Киев (Kyiv, UA)
Age: 46
Name: Andrey
overkiller wrote:
у мя хорошие наушники, не дорогие , но меня устраивает то, в каком виде оттуда доносятся звуки

...а у меня сейчас вообще нет никаких... Эх :cry:

_________________


Top
 Profile E-mail  
 
 
PostPosted: 28 Jul 2013 
А может смените мне статус?..
User avatar
Joined: 02 Feb 2009
Posts: 999
Lоcаtion: из Тулы
Age: 45
Name: Максим
overkiller, :thanx:

Закуярил на быструю руку:
1989 - Let the Day Begin .cue | +
Code:
REM GENRE Thrash Metal
REM DATE 1989
PERFORMER "Dethrone (Fi)"
TITLE "Let the Day Begin (vinyl rip 16/44)"
FILE "01. Dethrone - A1 Predator.flac" WAVE
  TRACK 01 AUDIO
    TITLE "Predator"
    PERFORMER "Dethrone"
    INDEX 01 00:00:00
FILE "02. Dethrone - A2 Powermad.flac" WAVE
  TRACK 02 AUDIO
    TITLE "Powermad"
    PERFORMER "Dethrone"
    INDEX 01 00:00:00
FILE "03. Dethrone - A3 The Day After.flac" WAVE
  TRACK 03 AUDIO
    TITLE "...The Day After"
    PERFORMER "Dethrone"
    INDEX 01 00:00:00
FILE "04. Dethrone - A4 Black Dawn.flac" WAVE
  TRACK 04 AUDIO
    TITLE "Black Dawn"
    PERFORMER "Dethrone"
    INDEX 01 00:00:00
FILE "05. Dethrone - A5 Last Respects.flac" WAVE
  TRACK 05 AUDIO
    TITLE "Last Respects"
    PERFORMER "Dethrone"
    INDEX 01 00:00:00
FILE "06. Dethrone - B1 Beyond The Wall.flac" WAVE
  TRACK 06 AUDIO
    TITLE "Beyond the Wall"
    PERFORMER "Dethrone"
    INDEX 01 00:00:00
FILE "07. Dethrone - B2 City Of Silence.flac" WAVE
  TRACK 07 AUDIO
    TITLE "City of Silence"
    PERFORMER "Dethrone"
    INDEX 01 00:00:00
FILE "08. Dethrone - B3 Haunter In The Dark.flac" WAVE
  TRACK 08 AUDIO
    TITLE "Haunter in the Dark"
    PERFORMER "Dethrone"
    INDEX 01 00:00:00
FILE "09. Dethrone - B4 Withered.flac" WAVE
  TRACK 09 AUDIO
    TITLE "Withered"
    PERFORMER "Dethrone"
    INDEX 01 00:00:00

1992 - The Decay of a Man .cue | +
Code:
REM GENRE Thrash Metal
REM DATE 1992
PERFORMER "Dethrone (Fi)"
TITLE "The Decay of a Man (vinyl rip 16/44)"
FILE "01. Dethrone - A1 Hello the voice.flac" WAVE
  TRACK 01 AUDIO
    TITLE "Hello the voice"
    PERFORMER "Dethrone"
    INDEX 01 00:00:00
FILE "02. Dethrone - A2 Father' day.flac" WAVE
  TRACK 02 AUDIO
    TITLE "Father's day"
    PERFORMER "Dethrone"
    INDEX 01 00:00:00
FILE "03. Dethrone - A3 Shadowplay.flac" WAVE
  TRACK 03 AUDIO
    TITLE "Shadowplay"
    PERFORMER "Dethrone"
    INDEX 01 00:00:00
FILE "04. Dethrone - A4 Out through the blue.flac" WAVE
  TRACK 04 AUDIO
    TITLE "Out through the blue... into the dark"
    PERFORMER "Dethrone"
    INDEX 01 00:00:00
FILE "05. Dethrone - A5 Censored scenes.flac" WAVE
  TRACK 05 AUDIO
    TITLE "Censored Scenes"
    PERFORMER "Dethrone"
    INDEX 01 00:00:00
FILE "06. Dethrone - B1 Block the sun.flac" WAVE
  TRACK 06 AUDIO
    TITLE "Block the sun"
    PERFORMER "Dethrone"
    INDEX 01 00:00:00
FILE "07. Dethrone - B2 The decay.flac" WAVE
  TRACK 07 AUDIO
    TITLE "The Decay"
    PERFORMER "Dethrone"
    INDEX 01 00:00:00
FILE "08. Dethrone - B3 Confessions of a madman.flac" WAVE
  TRACK 08 AUDIO
    TITLE "Confessions of a madman"
    PERFORMER "Dethrone"
    INDEX 01 00:00:00
FILE "09. Dethrone - B4 The barrier within.flac" WAVE
  TRACK 09 AUDIO
    TITLE "The Barrier within"
    PERFORMER "Dethrone"
    INDEX 01 00:00:00

а зачем куи то?
всё ж потреково

_________________
КМА


Top
 Profile  
 
 
PostPosted: 28 Jul 2013 
Хиппей (support team)
User avatar
Joined: 30 Jul 2007
Posts: 114020
Lоcаtion: Киев (Kyiv, UA)
Age: 46
Name: Andrey
overkiller wrote:
а зачем куи то?

А для шику :dance:

_________________


Top
 Profile E-mail  
 
 
PostPosted: 28 Jul 2013 
\m/ 80 см сала \m/
User avatar
Joined: 12 Mar 2012
Posts: 2590
Age: 26
Name: Nick
Everhard wrote:
а зачем куи то?
всё ж потреково

В виниловом разделе было несколько релизов, в которых ни теги не прописаны в аудиофайлах, ни названия аудиофайлов ничего не говорят о том, как называется та или иная песня - вот я и леплю куи почти на все винил-риповые релизы. На всякий пожарный :losik:
Просто так надо - собирательский перфекционизм, как-то так :pardon:

_________________
1990 AUROPHON BRAINSTORM (Germany) - lossless
1994 MAUSOLEUM CLASSIX (Belgium-Germany) - lossless
1998 VA - GRIM HARVEST - Complete Metal Massacre Volumes I-XII


Top
 Profile  
 
 
PostPosted: 28 Jul 2013 
А может смените мне статус?..
User avatar
Joined: 02 Feb 2009
Posts: 999
Lоcаtion: из Тулы
Age: 45
Name: Максим
собирательство должно в шкафах не умещаться...как у меня например :benya:

_________________
КМА


Top
 Profile  
 
 
PostPosted: 28 Jul 2013 
\m/ 80 см сала \m/
User avatar
Joined: 12 Mar 2012
Posts: 2590
Age: 26
Name: Nick
Я дитё холодной и бездушной цыфери, у меня шкафы трещат разве что от сервизов, да учебников по политэкономии :benya:

_________________
1990 AUROPHON BRAINSTORM (Germany) - lossless
1994 MAUSOLEUM CLASSIX (Belgium-Germany) - lossless
1998 VA - GRIM HARVEST - Complete Metal Massacre Volumes I-XII


Top
 Profile  
 
 
PostPosted: 28 Jul 2013 
А может смените мне статус?..
User avatar
Joined: 02 Feb 2009
Posts: 999
Lоcаtion: из Тулы
Age: 45
Name: Максим
учебников по политэкономии :benya:
????????????
любишь политэкономию? :shok:

_________________
КМА


Top
 Profile  
 
Display posts from previous:  Sort by  
Post new topic Reply to topic  [ 34 posts ]  Go to page 1, 2  Next

All times are UTC + 3 hours


Who is online

Users browsing this forum: No registered users and 1 guest


You cannot post new topics in this forum
You cannot reply to topics in this forum
You cannot edit your posts in this forum
You cannot delete your posts in this forum
You cannot post attachments in this forum

Search for:
Яндекс.Метрика
Powered by phpBB © 2000, 2002, 2005, 2007 phpBB Group