\m/ 80's metal \m/

Информационно-аналитический форум "80 см пыли" (In Search We Trust) "У нас никто никуда не спешит"
Me For You - http://me-4u.com
It is currently 19 Aug 2019

All times are UTC + 3 hours

Spoiler
Chat - temporary registration for foreign users (please leave your application here)







Post new topic Reply to topic  [ 9 posts ] 
Author Message
 
PostPosted: 18 Jul 2013 
5-speed satisfactor
User avatar
Joined: 16 Feb 2009
Posts: 3755
Lоcаtion: New York, USA
Age: 41
Name: Leonid
Image Image

Группа: Bloodlust
Страна: США
Aльбом: Guilty As Sin
Год: 1985
Стиль: Heavy Metal (not really Speed Metal as only a few tracks fall into this category)

Состав:
Guy Lord - Vocals
Sandy K. - Bass
Anthony Romero - Guitars
Earl Mendenhall - Guitars
M.E. Cuestas Drums

Ссылка: http://www.metal-archives.com/albums/Bl ... s_Sin/4522

1. Soldier of Fortune 05:32
2. Ride to Death 04:03
3. Chainsaw 03:47
4. Tear it Up 04:39
5. Bleeding for You 03:12
6. Too Scared to Run 05:02
7. Rising Power 03:18

Оцифровал в 2004ом году.

Вертак: Pro-Ject 1.2
Cartridge: REGA bias
АЦП: Terratec Aureon Universe 7.1 со встроенным phono pre-amp

Никакой обработки запись не подвергалась за исключением сведения громкости до тишины между треками и удалению нескольких щелчков. Громкость после оцифровки не регулировалась. Я ее отрегулировал во время записи.

Винил любезно предоставил King Fowley.

У вас 2 недели:

[0]Bloodlust - Guilty As Sin (1985)[/0]

_________________
Death rules! Metal to all who oppose!


Top
 Profile  
 
 
PostPosted: 18 Jul 2013 
Хиппей (support team)
User avatar
Joined: 30 Jul 2007
Posts: 114002
Lоcаtion: Киев (Kyiv, UA)
Age: 46
Name: Andrey
:thanx:

F-Bit l Narod

_________________


Top
 Profile E-mail  
 
 
PostPosted: 18 Jul 2013 
Генеральный thrasher
User avatar
Joined: 03 Oct 2008
Posts: 3717
Lоcаtion: Ханты-Мансийский АО
Age: 44
Name: Сергей
Спасибо,Лёнь!Кстати на рутрэкере я раздаю бутлежный CD Bloodlust,если кому интересно...


Top
 Profile  
 
 
PostPosted: 18 Jul 2013 
Хиппей (support team)
User avatar
Joined: 30 Jul 2007
Posts: 114002
Lоcаtion: Киев (Kyiv, UA)
Age: 46
Name: Andrey
Хороший альбом. Классика жанра :meloman:
Качество рипа пока оценить временно не могу :fingal:

_________________


Top
 Profile E-mail  
 
 
PostPosted: 18 Jul 2013 
Рарник и трушник
User avatar
Joined: 25 Dec 2009
Posts: 8725
Lоcаtion: Москва
Age: 54
Name: Виталий
Спасибо, Лёнь!
Звучок хороший. Я тоже его цифровал, сравнил, приблизительно одинаково по качеству. У меня тока высокие ярче за счет вертака, ну и винилка чуть грязней. Цифровал на рекордер Харман-Кардон. Качество АЦП приблизительно одинаковое. :thanx:


Top
 Profile  
 
 
PostPosted: 18 Jul 2013 
спирт 100%
User avatar
Joined: 22 Sep 2008
Posts: 4458
Age: 48
Name: Саня
Спасибо! :thanx:


Top
 Profile  
 
 
PostPosted: 18 Jul 2013 
\m/ 80 см сала \m/
User avatar
Joined: 12 Mar 2012
Posts: 2590
Age: 26
Name: Nick
metaleonid, :thanx:

.cue | +
Code:
REM GENRE Metal
REM DATE 1985
PERFORMER "Bloodlust (US)"
TITLE "Guilty as Sin (vinyl rip 16/44)"
FILE "01. Soldier Of Fortune.flac" WAVE
  TRACK 01 AUDIO
    TITLE "Soldier of Fortune"
    PERFORMER "Bloodlust"
    INDEX 01 00:00:00
FILE "02. Ride To Death.flac" WAVE
  TRACK 02 AUDIO
    TITLE "Ride to Death"
    PERFORMER "Bloodlust"
    INDEX 01 00:00:00
FILE "03. Chainsaw.flac" WAVE
  TRACK 03 AUDIO
    TITLE "Chainsaw"
    PERFORMER "Bloodlust"
    INDEX 01 00:00:00
FILE "04. Tear It Up.flac" WAVE
  TRACK 04 AUDIO
    TITLE "Tear it Up"
    PERFORMER "Bloodlust"
    INDEX 01 00:00:00
FILE "05. Bleeding For You.flac" WAVE
  TRACK 05 AUDIO
    TITLE "Bleeding for You"
    PERFORMER "Bloodlust"
    INDEX 01 00:00:00
FILE "06. Too Scared To Run.flac" WAVE
  TRACK 06 AUDIO
    TITLE "Too Scared to Run"
    PERFORMER "Bloodlust"
    INDEX 01 00:00:00
FILE "07. Rising Power.flac" WAVE
  TRACK 07 AUDIO
    TITLE "Rising Power"
    PERFORMER "Bloodlust"
    INDEX 01 00:00:00

_________________
1990 AUROPHON BRAINSTORM (Germany) - lossless
1994 MAUSOLEUM CLASSIX (Belgium-Germany) - lossless
1998 VA - GRIM HARVEST - Complete Metal Massacre Volumes I-XII


Top
 Profile  
 
 
PostPosted: 18 Jul 2013 
Хиппей (support team)
User avatar
Joined: 30 Jul 2007
Posts: 114002
Lоcаtion: Киев (Kyiv, UA)
Age: 46
Name: Andrey
Шо-то я за куями не успеваю... :oops:

_________________


Top
 Profile E-mail  
 
 
PostPosted: 19 Jul 2013 
5-speed satisfactor
User avatar
Joined: 16 Feb 2009
Posts: 3755
Lоcаtion: New York, USA
Age: 41
Name: Leonid
Спасибо,Лёнь!Кстати на рутрэкере я раздаю бутлежный CD Bloodlust,если кому интересно...


Не удивлюсь, если бутлежный CD сделан из моей оцифровки. Мне King Fowley послал несколько альбомов в свое время, чтоб я их оцифровал для него. Он их собирался отдавать на бутлеги. Его контора Old Metal Records к тому времени уже закрылась.

_________________
Death rules! Metal to all who oppose!


Top
 Profile  
 
Display posts from previous:  Sort by  
Post new topic Reply to topic  [ 9 posts ] 

All times are UTC + 3 hours


Who is online

Users browsing this forum: No registered users and 1 guest


You cannot post new topics in this forum
You cannot reply to topics in this forum
You cannot edit your posts in this forum
You cannot delete your posts in this forum
You cannot post attachments in this forum

Search for:
Яндекс.Метрика
Powered by phpBB © 2000, 2002, 2005, 2007 phpBB Group