\m/ 80's metal \m/

Информационно-аналитический форум "80 см пыли" (In Search We Trust) "У нас никто никуда не спешит"
Me For You - http://me-4u.com
It is currently 20 Aug 2019

All times are UTC + 3 hours

Spoiler
Chat - temporary registration for foreign users (please leave your application here)







Post new topic Reply to topic  [ 29 posts ]  Go to page 1, 2  Next
Author Message
 
PostPosted: 09 May 2013 
Рарник и трушник
User avatar
Joined: 25 Dec 2009
Posts: 8725
Lоcаtion: Москва
Age: 54
Name: Виталий
Image
Dealer
First Strike

Country of origin: United Kingdom
Location: Cirencester
Formed in: 1979
Genre: NWOBHM
Label: EBONY Rec.
Year: 1986
Format: flac 16/44

1. When Midnight Comes
2. Victim of the Night
3. Son of a Bitch
4. Epitaph
5. Choose your Weapon
6. Bring the Walls Down
7. Final Conflict: 1) Prologue 2) Conflict 3) Genocide
8. Bring the Walls Down (Bonus)

http://yadi.sk/d/23tXoIN-4fvek

Рип 16/44, с очисткой. По просьбе glory11.
Самый грязный по саунду альбом, даже среди релизов EBONY Rec. Но музон на 5 баллов. Припаверенный NWOBHM.
Бонус взят с компиляции The Metal Collection Vol II. Звучит чище альбомного трека. Так должен был бы и альбом звучать, если б не испортили при изготовлении (или матрица бракованная, или звукачи перемудрили).


Image

Image

[0]Dealer - [UK] - 1986 - First Strike (16/44.1)
mirror
mirror 2[/0]


Last edited by Vitaly65 on 13 Jun 2013, edited 1 time in total.

Top
 Profile  
 
 
PostPosted: 09 May 2013 
Power Metal Maniac
User avatar
Joined: 09 Aug 2008
Posts: 6824
Lоcаtion: Москва
Age: 41
Name: Егор
:thanx:

_________________
Long Live Metal!


Top
 Profile  
 
 
PostPosted: 09 May 2013 
А может смените мне статус?..
Joined: 03 Jul 2009
Posts: 880
Lоcаtion: Serbia
Name: Laki
Outstanding LP. Thanks Vitaly for this!!!!


Top
 Profile E-mail  
 
 
PostPosted: 09 May 2013 
дядя Миша
User avatar
Joined: 17 Oct 2008
Posts: 3166
Lоcаtion: USSR
Age: 56
Name: Khy
У меня скачивает первый трек и коврики, и всё , пишет загрузка завершена.


Top
 Profile  
 
 
PostPosted: 09 May 2013 
Old Time Rock`n`Roll
User avatar
Joined: 23 Jun 2008
Posts: 3467
Lоcаtion: г.Ульяновск
Age: 41
Name: Константин
:thanx:


Top
 Profile  
 
 
PostPosted: 10 May 2013 
Я набрал 1000 сообщений!
Joined: 12 Dec 2008
Posts: 1066
Lоcаtion: BULGARIA
Age: 40
Name: DIMITЪR
Със 8 кв /с 20 часа надо скачать ,что за сървър ето :oops:


Top
 Profile  
 
 
PostPosted: 10 May 2013 
Я набрал 1000 сообщений!
User avatar
Joined: 25 Dec 2008
Posts: 1545
Age: 43
Name: Павел
Виталий, спасибо! Сравнил с переизданием от греков No Remorse и констатирую, что руки у них не из того места растут, к сожалению. Улучшатели звука хреновы!
То же самое с они сделали переизданием Release - A Requiem For the World. Лучше бы не брались, что ли.


Top
 Profile  
 
 
PostPosted: 11 May 2013 
Рарник и трушник
User avatar
Joined: 25 Dec 2009
Posts: 8725
Lоcаtion: Москва
Age: 54
Name: Виталий
hawkhunter wrote:
Сравнил с переизданием от греков No Remorse и констатирую, что руки у них не из того места растут, к сожалению. Улучшатели звука хреновы!


Ну, греки же. :benya: Они ж советской школы не заканчивали, и не знают, что кассеты можно было и карандашом перематывать. :benya:


Top
 Profile  
 
 
PostPosted: 11 May 2013 
Я набрал 1000 сообщений!
User avatar
Joined: 25 Dec 2008
Posts: 1545
Age: 43
Name: Павел
Vitaly65 wrote:
не знают, что кассеты можно было и карандашом перематывать

Про кассеты недопонял. :umnik:


Top
 Profile  
 
 
PostPosted: 11 May 2013 
Труъ
User avatar
Joined: 27 Feb 2009
Posts: 186
Lоcаtion: Питер
Age: 52
Name: Олег
При реставрации изначально плохо звучащих винилов по-видимому надо исходить из принципа врачей - не навреди . Щелчки , уровень громкости треков , затухание в конце темы , больше ничего не трогать . Любое кардинальное вмешательство в сам звук приводит к тому , что получается еще хуже чем было . А альбом отличный , большое спасибо !


Top
 Profile  
 
 
PostPosted: 11 May 2013 
Рарник и трушник
User avatar
Joined: 25 Dec 2009
Posts: 8725
Lоcаtion: Москва
Age: 54
Name: Виталий
hawkhunter wrote:
Про кассеты недопонял. :umnik:


Шутка! :benya:


Top
 Profile  
 
 
PostPosted: 11 May 2013 
Рарник и трушник
User avatar
Joined: 25 Dec 2009
Posts: 8725
Lоcаtion: Москва
Age: 54
Name: Виталий
vit111 wrote:
При реставрации изначально плохо звучащих винилов по-видимому надо исходить из принципа врачей - не навреди . Щелчки , уровень громкости треков , затухание в конце темы , больше ничего не трогать . Любое кардинальное вмешательство в сам звук приводит к тому , что получается еще хуже чем было . А альбом отличный , большое спасибо !


Да, Вы правы, именно так. :thanx:


Top
 Profile  
 
 
PostPosted: 11 May 2013 
А может смените мне статус?..
User avatar
Joined: 24 Dec 2008
Posts: 647
Age: 45
Name: Дмитрий
Спасибо!


Top
 Profile  
 
 
PostPosted: 13 May 2013 
HAMMER
User avatar
Joined: 16 May 2009
Posts: 5488
Lоcаtion: Тверь
Age: 46
Name: Александр
:thanx:


Top
 Profile E-mail  
 
 
PostPosted: 13 May 2013 
Доктор энтомологии
User avatar
Joined: 22 Jan 2009
Posts: 9841
Lоcаtion: Даугавпилс
Age: 44
Name: Алексей
:thanx:


Top
 Profile  
 
 
PostPosted: 14 May 2013 
Хиппей (support team)
User avatar
Joined: 30 Jul 2007
Posts: 114002
Lоcаtion: Киев (Kyiv, UA)
Age: 46
Name: Andrey
:thanx: :true:

mirror: F-Bit l Narod

_________________


Top
 Profile E-mail  
 
 
PostPosted: 13 Jun 2013 
Рарник и трушник
User avatar
Joined: 25 Dec 2009
Posts: 8725
Lоcаtion: Москва
Age: 54
Name: Виталий
Добавил сканы. :umnik:


Top
 Profile  
 
 
PostPosted: 16 Jun 2013 
Хиппей (support team)
User avatar
Joined: 30 Jul 2007
Posts: 114002
Lоcаtion: Киев (Kyiv, UA)
Age: 46
Name: Andrey
:thanx:

_________________


Top
 Profile E-mail  
 
 
PostPosted: 16 Jun 2013 
Работнечег
User avatar
Joined: 28 Aug 2007
Posts: 5932
Lоcаtion: г. Москва
Age: 30
Name: Дима
:true:


Top
 Profile E-mail  
 
 
PostPosted: 05 Jul 2013 
\m/ 80 см сала \m/
User avatar
Joined: 12 Mar 2012
Posts: 2590
Age: 26
Name: Nick
.cue | +
Code:
REM GENRE Metal
REM DATE 1986
PERFORMER "Dealer"
TITLE "First Strike (vinyl rip 16/44)"
FILE "Dealer 01_When Midnight Comes.flac" WAVE
  TRACK 01 AUDIO
    TITLE "When Midnight Comes"
    PERFORMER "Dealer"
    INDEX 01 00:00:00
FILE "Dealer 02_Victim of the Night.flac" WAVE
  TRACK 02 AUDIO
    TITLE "Victim of the Night"
    PERFORMER "Dealer"
    INDEX 01 00:00:00
FILE "Dealer 03_Son of a Bitch.flac" WAVE
  TRACK 03 AUDIO
    TITLE "Son of a Bitch"
    PERFORMER "Dealer"
    INDEX 01 00:00:00
FILE "Dealer 04_Epitaph.flac" WAVE
  TRACK 04 AUDIO
    TITLE "Epitaph"
    PERFORMER "Dealer"
    INDEX 01 00:00:00
FILE "Dealer 05_Choose your Weapon.flac" WAVE
  TRACK 05 AUDIO
    TITLE "Choose Your Weapon"
    PERFORMER "Dealer"
    INDEX 01 00:00:00
FILE "Dealer 06_Bring the Walls Down.flac" WAVE
  TRACK 06 AUDIO
    TITLE "Bring the Walls Down"
    PERFORMER "Dealer"
    INDEX 01 00:00:00
FILE "Dealer 07_Final Conflict.flac" WAVE
  TRACK 07 AUDIO
    TITLE "Final Conflict"
    PERFORMER "Dealer"
    INDEX 01 00:00:00
FILE "Dealer 08_Bring the Walls Down_Bonus.flac" WAVE
  TRACK 08 AUDIO
    TITLE "Bring the Walls Down (from The Metal Collection Volume II)"
    PERFORMER "Dealer"
    INDEX 01 00:00:00

.cue 2 | +
Code:
REM GENRE Metal
REM DATE 1986
PERFORMER "Dealer"
TITLE "First Strike (vinyl rip 16/44)"
FILE "Dealer 01_When Midnight Comes.flac" WAVE
  TRACK 01 AUDIO
    TITLE "When Midnight Comes"
    PERFORMER "Dealer"
    INDEX 01 00:00:00
FILE "Dealer 02_Victim of the Night.flac" WAVE
  TRACK 02 AUDIO
    TITLE "Victim of the Night"
    PERFORMER "Dealer"
    INDEX 01 00:00:00
FILE "Dealer 03_Son of a Bitch.flac" WAVE
  TRACK 03 AUDIO
    TITLE "Son of a Bitch"
    PERFORMER "Dealer"
    INDEX 01 00:00:00
FILE "Dealer 04_Epitaph.flac" WAVE
  TRACK 04 AUDIO
    TITLE "Epitaph"
    PERFORMER "Dealer"
    INDEX 01 00:00:00
FILE "Dealer 05_Choose your Weapon.flac" WAVE
  TRACK 05 AUDIO
    TITLE "Choose Your Weapon"
    PERFORMER "Dealer"
    INDEX 01 00:00:00
FILE "Dealer 06_Bring the Walls Down.flac" WAVE
  TRACK 06 AUDIO
    TITLE "Bring the Walls Down"
    PERFORMER "Dealer"
    INDEX 01 00:00:00
FILE "Dealer 07_Final Conflict.flac" WAVE
  TRACK 07 AUDIO
    TITLE "Final Conflict: Part I Prologue"
    PERFORMER "Dealer"
    INDEX 01 00:00:00
FILE "Dealer 07_Final Conflict.flac" WAVE
  TRACK 08 AUDIO
    TITLE "Final Conflict: Part II Conflict"
    PERFORMER "Dealer"
    INDEX 01 01:16:65
FILE "Dealer 07_Final Conflict.flac" WAVE
  TRACK 09 AUDIO
    TITLE "Final Conflict: Part III Genocide"
    PERFORMER "Dealer"
    INDEX 01 05:49:50
FILE "Dealer 08_Bring the Walls Down_Bonus.flac" WAVE
  TRACK 10 AUDIO
    TITLE "Bring the Walls Down (from The Metal Collection Volume II)"
    PERFORMER "Dealer"
    INDEX 01 00:00:00

Второй куй является моей фантазией на тему "Как поделить песню Final Conflict согласно указанным частям" (в первом варианте отсебятины нет) - но, вроде как получилось хорошо :meloman:

_________________
1990 AUROPHON BRAINSTORM (Germany) - lossless
1994 MAUSOLEUM CLASSIX (Belgium-Germany) - lossless
1998 VA - GRIM HARVEST - Complete Metal Massacre Volumes I-XII


Top
 Profile  
 
Display posts from previous:  Sort by  
Post new topic Reply to topic  [ 29 posts ]  Go to page 1, 2  Next

All times are UTC + 3 hours


Who is online

Users browsing this forum: No registered users and 3 guests


You cannot post new topics in this forum
You cannot reply to topics in this forum
You cannot edit your posts in this forum
You cannot delete your posts in this forum
You cannot post attachments in this forum

Search for:
Яндекс.Метрика
Powered by phpBB © 2000, 2002, 2005, 2007 phpBB Group