\m/ 80's metal \m/

Информационно-аналитический форум "80 см пыли" (In Search We Trust) "У нас никто никуда не спешит"
Me For You - http://me-4u.com
It is currently 17 Nov 2019

All times are UTC + 3 hours

Spoiler
Chat - temporary registration for foreign users (please leave your application here)







Post new topic Reply to topic  [ 45 posts ]  Go to page Previous  1, 2, 3
Author Message
 
PostPosted: 16 Nov 2011 
Хиппей (support team)
User avatar
Joined: 30 Jul 2007
Posts: 115552
Lоcаtion: Киев (Kyiv, UA)
Age: 46
Name: Andrey
Darxon - 1987 - No Thrills & - 1984 - Tokyo (EP) [flac] - vinyl rip

Genre: Heavy Metal
Location: Germany
Format: flac+cue+covers
Size: 359 Mb


ImageImage

Line-up:

Massimo de Matteis - Vocals
Thomas Smuszynski - Bass
Ingo Plass - Drums
Wolfgang Böhm - Guitars
Michael Hebestadt - Guitars

    1. Into (First Theme) - 00:50
    2. Banging - 03:18
    3. Heartbreaker - 03:02
    4. Place Where I Belong - 03:27
    5. Hungry - 06:00
    6. We Rock The Nation (Cat Bizz) - 02:48
    7. Holding On - 03:59
    8. Deep In The Night - 03:36
    9. Don't Give Up - 04:28
    10. No Thrills - 03:14

    TPT: 34:42

ImageImage

    1. Tokyo - 05:21
    2. Rock Fever - 04:03
    3. Heavy Metal - 04:12
    4. Queen Of Rock - 03:42

    TPT: 17:18

Ну вот, совсем иное дело - хороший альбом. Мелодичный, приамериканизированный хэви высокого уровня. Но, далеко не шедевр.
Слушается очень легко и запоминается с первого прослушивания. Все вещи (даже с миника) хиты.
Качество записи отменное - всё часточки на месте.
Качество рипа на любителя. То есть, я такой обожаю, например - перед каждым трэком приятных песочек и умеренный треск винила :meloman: Так не теряется ощущение олдскульности и трушности.
Противникам данного шарма альбомы лучше не качать.
Очень несущественный косяк - не очень гладко слеплен полный альбом и миник - все же треск можно было сделать более лояльным. Так что начинать слушать EP лучше не на максимальной громкости :fingal:

8/10

Источник: из личного архива Nikita Mikhalkov Prods.

Narod

cue
REM DISCID C40C230E
REM COMMENT "ExactAudioCopy v0.99pb1"
PERFORMER "Darxon"
TITLE "No Thrills & Tokyo (EP)"
FILE "Darxon - No Thrills & Tokyo (EP).flac" WAVE
TRACK 01 AUDIO
TITLE "Into (First Theme)"
PERFORMER "Darxon"
INDEX 01 00:00:00
TRACK 02 AUDIO
TITLE "Banging"
PERFORMER "Darxon"
INDEX 00 00:55:41
INDEX 01 00:57:25
TRACK 03 AUDIO
TITLE "Heartbreaker"
PERFORMER "Darxon"
INDEX 00 04:14:74
INDEX 01 04:17:00
TRACK 04 AUDIO
TITLE "Place Where I Belong"
PERFORMER "Darxon"
INDEX 00 07:18:70
INDEX 01 07:20:70
TRACK 05 AUDIO
TITLE "Hungry"
PERFORMER "Darxon"
INDEX 00 10:48:18
INDEX 01 10:50:00
TRACK 06 AUDIO
TITLE "We Rock The Nation (Cat Bizz)"
PERFORMER "Darxon"
INDEX 00 16:51:63
INDEX 01 16:53:45
TRACK 07 AUDIO
TITLE "Holding On"
PERFORMER "Darxon"
INDEX 00 19:41:50
INDEX 01 19:43:50
TRACK 08 AUDIO
TITLE "Deep In The Night"
PERFORMER "Darxon"
INDEX 00 23:03:49
INDEX 01 23:05:30
TRACK 09 AUDIO
TITLE "Don't Give Up"
PERFORMER "Darxon"
INDEX 00 26:43:07
INDEX 01 26:45:10
TRACK 10 AUDIO
TITLE "No Thrills"
PERFORMER "Darxon"
INDEX 00 31:14:17
INDEX 01 31:16:20
TRACK 11 AUDIO
TITLE "Tokyo"
PERFORMER "Darxon"
INDEX 00 34:30:47
INDEX 01 34:32:47
TRACK 12 AUDIO
TITLE "Rock Fever"
PERFORMER "Darxon"
INDEX 00 39:47:33
INDEX 01 39:49:12
TRACK 13 AUDIO
TITLE "Heavy Metal"
PERFORMER "Darxon"
INDEX 00 43:47:00
INDEX 01 43:48:57
TRACK 14 AUDIO
TITLE "Queen Of Rock"
PERFORMER "Darxon"
INDEX 00 47:52:49
INDEX 01 47:54:32


specrtrum
Image


[0]Darxon - 1987 - No Thrills & - 1984 - Tokyo (EP) [flac] - vinyl rip
Darxon - No Thrills (1987) & Tokyo (EP) [ape + cue](Перекод)[/0]

_________________


Top
 Profile E-mail  
 
 
PostPosted: 10 Sep 2013 
Хиппей (support team)
User avatar
Joined: 30 Jul 2007
Posts: 115552
Lоcаtion: Киев (Kyiv, UA)
Age: 46
Name: Andrey
attax wrote:
не нравиЦа и не надо!

а мне как то нра', причем ностальгически, а не просто, потому, что они ЛЕгенда и все так говорят!

Просто они попсу возвели как бы в рок-музыку, исполняя стадионные хиты, вот и всё. Лабухи они ракрученные по имиджу и всё :blak:
attax wrote:
кстати купил на Шулявке много лет назад, помню там вниз по дороге, после нигеров и справой стороны огроменное здание из красного кирпича, вот там во дворе была точка с цыдами ипониченскими ))))

А вот пошёл бы чуть выше и меня встретил бы, падонак :au: :hi:

_________________


Top
 Profile E-mail  
 
 
PostPosted: 10 Sep 2013 
Рарник и трушник
User avatar
Joined: 25 Dec 2009
Posts: 8813
Lоcаtion: Москва
Age: 54
Name: Виталий
attax wrote:
я это, я даже цыд ипониченские имею!

Нука, Серёг попобробней, какой у тебя цид Дарксона? 92-й?


Top
 Profile  
 
 
PostPosted: 10 Sep 2013 
Хиппей (support team)
User avatar
Joined: 30 Jul 2007
Posts: 115552
Lоcаtion: Киев (Kyiv, UA)
Age: 46
Name: Andrey
attax wrote:
я это, я даже цыд ипониченские имею!

Нука, Серёг попобробней, какой у тебя цид Дарксона? 92-й?

А это ж он про Kisszzzzzzz :nunu:

_________________


Top
 Profile E-mail  
 
 
PostPosted: 10 Sep 2013 
Рарник и трушник
User avatar
Joined: 25 Dec 2009
Posts: 8813
Lоcаtion: Москва
Age: 54
Name: Виталий
Scatterbrain wrote:
А это ж он про Kisszzzzzzz

Нда уж. :pardon: В теме Дарксона про Кисс. :umnik: Извиняйтэ, туплю. :benya:


Top
 Profile  
 
 
PostPosted: 11 Sep 2013 
Хиппей (support team)
User avatar
Joined: 30 Jul 2007
Posts: 115552
Lоcаtion: Киев (Kyiv, UA)
Age: 46
Name: Andrey
Да норм =) Это я флудю :pardon:

_________________


Top
 Profile E-mail  
 
Display posts from previous:  Sort by  
Post new topic Reply to topic  [ 45 posts ]  Go to page Previous  1, 2, 3

All times are UTC + 3 hours


Who is online

Users browsing this forum: No registered users and 1 guest


You cannot post new topics in this forum
You cannot reply to topics in this forum
You cannot edit your posts in this forum
You cannot delete your posts in this forum
You cannot post attachments in this forum

Search for:
Яндекс.Метрика
cron
Powered by phpBB © 2000, 2002, 2005, 2007 phpBB Group